<?xml version="1.0" standalone="no"?>
<!DOCTYPE svg PUBLIC "-//W3C//DTD SVG 1.1//EN" "http://www.w3.org/Graphics/SVG/1.1/DTD/svg11.dtd">
<svg xmlns="http://www.w3.org/2000/svg">
<defs >
<font id="Rubik" horiz-adv-x="544" ><font-face
    font-family="Rubik"
    units-per-em="1000"
    panose-1="0 0 0 0 0 0 0 0 0 0"
    ascent="935"
    descent="-250"
    alphabetic="0" />
<glyph unicode=" " glyph-name="space" horiz-adv-x="217" />
<glyph unicode="!" glyph-name="exclam" horiz-adv-x="291" d="M72 221Q61 221 56 228T52 246L144 675Q146 686 154 693T174 700H289Q299 700 305 693T309 675L218 246Q216 236 207 229T187 221H72ZM21 0Q11 0 5 7T1 25L27 148Q29 159 38 166T58 174H181Q191 174
197 167T201 148L175 25Q173 15 164 8T144 0H21Z" />
<glyph unicode="&quot;" glyph-name="quotedbl" horiz-adv-x="451" d="M121 446Q106 446 102 454T99 473L120 680Q122 694 130 702T150 710H262Q274 710 279 702T280 680L214 473Q210 462 203 454T179 446H121ZM330 446Q315 446 311 454T308 473L329 680Q331 694
339 702T359 710H471Q483 710 488 702T489 680L423 473Q420 462 412 454T388 446H330Z" />
<glyph unicode="#" glyph-name="numbersign" horiz-adv-x="686" d="M106 39Q97 39 92 45T89 61L124 157H53Q43 157 38 164T34 181L51 260Q53 270 61 276T80 283H170L216 411H133Q123 411 118 418T114 435L131 514Q133 524 141 530T160 537H262L297 634Q300 642
307 648T324 655H404Q413 655 418 649T421 633L386 537H489L524 634Q527 642 534 648T551 655H631Q640 655 645 649T648 633L613 537H683Q694 537 699 531T702 514L685 435Q683 425 675 418T656 411H567L521 283H603Q614 283 619 277T622 260L605 181Q603 171 595
164T576 157H475L441 60Q437 51 430 45T413 39H333Q324 39 319 45T316 61L351 157H248L214 60Q210 51 203 45T186 39H106ZM294 283H397L443 411H340L294 283Z" />
<glyph unicode="$" glyph-name="dollar" horiz-adv-x="670" d="M211 -100Q201 -100 196 -93T192 -75L206 -4Q134 6 88 35T22 105T9 191Q11 199 18 205T35 212H161Q175 212 181 207T193 194Q197 179 209 165T242 143T297 134Q355 134 389 152T430 201Q436 224 423
238T376 263T286 287Q213 303 166 331T101 404T95 511Q112 592 176 644T344 707L360 775Q362 786 371 793T391 800H474Q484 800 489 793T493 775L477 701Q540 688 583 657T645 588T658 515Q657 507 650 501T633 494H500Q490 494 483 498T470 511Q470 533 447 549T387
566Q343 566 314 551T278 503Q274 483 284 468T324 442T406 419Q493 402 543 374T611 302T615 197Q596 105 526 54T338 -7L325 -75Q323 -85 314 -92T294 -100H211Z" />
<glyph unicode="%" glyph-name="percent" horiz-adv-x="838" d="M62 0Q47 0 44 10T49 31L681 681Q690 690 698 695T720 700H797Q811 700 815 690T809 669L178 19Q169 10 161 5T139 0H62ZM591 -5Q550 -5 518 12T469 59T458 130Q461 156 466 176T478 224Q495 284
535 319T651 355Q695 355 727 338T775 290T784 219Q780 191 776 171T764 125Q748 65 706 30T591 -5ZM599 83Q624 83 638 98T658 133Q665 156 669 175T675 216Q678 229 676 240T667 258T642 266Q616 266 602 251T583 216Q577 194 573 175T566 133Q564 121 566 110T576
91T599 83ZM209 345Q168 345 136 362T88 409T76 480Q80 506 85 526T97 574Q113 635 153 670T269 705Q313 705 345 688T393 641T403 569Q399 541 395 521T383 475Q366 415 324 380T209 345ZM217 434Q242 434 256 449T277 483Q283 506 287 525T294 566Q297 579 295
590T286 609T261 616Q235 616 221 601T201 566Q195 544 191 525T184 483Q183 471 184 460T194 441T217 434Z" />
<glyph unicode="&amp;" glyph-name="ampersand" horiz-adv-x="742" d="M249 -10Q171 -10 119 14T45 85T37 195Q46 238 70 272T130 334T212 385Q182 427 174 462T173 534Q183 581 215 620T302 685T427 710Q494 710 535 686T592 623T599 537Q590 497 566 465T505
407T421 356L514 237Q524 250 545 278T590 352Q596 366 614 366H715Q724 366 728 361T730 347Q726 328 712 303T676 249T632 194T587 146L674 33Q680 26 678 18Q677 10 671 5T655 0H519Q509 0 504 3T495 10L460 53Q412 20 360 5T249 -10ZM276 117Q306 117 333 126T387
154L282 287Q252 273 228 252T198 202Q193 175 202 156T232 127T276 117ZM356 448Q381 460 401 472T436 499T454 532Q459 559 445 575T402 592Q377 592 354 576T324 531Q321 514 327 495T356 448Z" />
<glyph unicode="&apos;" glyph-name="quotesingle" horiz-adv-x="241" d="M121 446Q106 446 102 454T99 473L120 680Q122 694 130 702T150 710H262Q274 710 279 702T280 680L213 472Q210 461 203 454T180 446H121Z" />
<glyph unicode="(" glyph-name="parenleft" horiz-adv-x="383" d="M239 -159Q194 -159 155 -143T87 -91T40 0T23 132T44 309Q71 434 105 523T186 668T293 750T437 776Q447 776 453 769T458 751L440 666Q438 656 429 649T410 641Q369 639 337 616T280 551T236 448T198
309Q182 231 176 170T176 67T205 1T268 -24Q278 -25 283 -32T287 -49L269 -134Q267 -144 258 -151T239 -159Z" />
<glyph unicode=")" glyph-name="parenright" horiz-adv-x="383" d="M-49 -159Q-59 -159 -65 -152T-70 -134L-52 -49Q-49 -39 -40 -32T-22 -24Q19 -22 51 1T109 66T153 169T190 309Q206 387 212 447T212 550T183 616T120 641Q110 642 105 649T101 666L119 751Q121
761 130 768T149 776Q194 776 233 760T301 708T348 618T365 486T344 309Q317 184 285 95T208 -50T100 -132T-49 -159Z" />
<glyph unicode="*" glyph-name="asterisk" horiz-adv-x="445" d="M243 618L240 700Q240 712 248 721T268 730H358Q371 730 374 720T372 700L335 618L416 663Q425 668 436 667T449 652L460 565Q462 553 453 546T432 537L345 530L399 476Q406 469 405 458T392 440L308
386Q298 379 287 382T274 398L259 477L209 396Q204 388 193 383T172 385L111 440Q102 448 106 459T120 476L196 530L112 537Q102 537 97 546T97 567L144 653Q150 664 161 666T179 664L243 618Z" />
<glyph unicode="+" glyph-name="plus" horiz-adv-x="603" d="M206 33Q195 33 189 40T185 58L224 241H46Q35 241 30 248T26 266L41 339Q44 350 52 357T72 365H250L288 542Q290 553 299 560T319 567H400Q411 567 416 560T420 542L382 365H560Q570 365 576 358T579
339L564 266Q562 255 553 248T533 241H356L317 58Q315 48 307 41T287 33H206Z" />
<glyph unicode="," glyph-name="comma" horiz-adv-x="286" d="M34 143Q39 156 49 166T77 177H200Q211 177 214 169T213 152L94 -47Q88 -57 79 -66T52 -75H-23Q-31 -75 -36 -68T-38 -52L34 143Z" />
<glyph unicode="-" glyph-name="hyphen" horiz-adv-x="476" d="M66 228Q55 228 50 235T46 253L66 347Q69 358 77 365T96 372H410Q421 372 427 365T430 347L410 253Q408 242 399 235T379 228H66Z" />
<glyph unicode="." glyph-name="period" horiz-adv-x="282" d="M18 0Q7 0 1 7T-3 25L24 152Q26 163 35 170T55 177H181Q192 177 197 170T201 152L174 25Q172 15 164 8T144 0H18Z" />
<glyph unicode="/" glyph-name="slash" horiz-adv-x="539" d="M-34 -84Q-45 -84 -50 -75T-48 -54L465 762Q470 770 480 778T506 786H598Q612 786 615 777T611 756L97 -60Q92 -67 82 -75T56 -84H-34Z" />
<glyph unicode="0" glyph-name="zero" horiz-adv-x="678" d="M289 -10Q201 -9 142 22T58 113T44 254Q49 282 55 316T70 385T86 449Q107 530 148 588T255 678T412 710Q497 710 557 678T644 588T658 449Q653 420 646 386T632 317T616 254Q595 173 554 114T448 23T289
-10ZM302 135Q353 135 384 166T431 259Q439 288 446 319T459 383T470 443Q481 504 466 535T399 567Q347 566 317 535T271 443Q264 415 257 383T243 320T231 259Q221 197 236 166T302 135Z" />
<glyph unicode="1" glyph-name="one" horiz-adv-x="494" d="M212 0Q201 0 195 7T191 25L290 489L137 389Q126 382 117 384T103 395L56 479Q53 488 56 498T71 515L339 693Q346 697 350 698T363 700H489Q500 700 506 693T510 675L371 25Q369 15 361 8T341 0H212Z" />
<glyph unicode="2" glyph-name="two" horiz-adv-x="650" d="M18 0Q7 0 2 7T-2 25L13 96Q15 103 22 117T49 145L174 247Q267 308 327 350T420 426T459 488Q466 522 453 544T397 567Q368 567 346 555T310 522T286 481Q280 468 270 463T248 458H123Q113 458 109 464T106
479Q117 527 145 569T216 644T312 694T427 713Q513 713 566 686T640 610T647 496Q637 447 607 405T529 324T418 244L306 151H564Q575 151 580 144T584 126L562 25Q560 15 551 8T531 0H18Z" />
<glyph unicode="3" glyph-name="three" horiz-adv-x="659" d="M274 -10Q197 -10 146 8T66 56T27 119T22 184Q24 193 31 199T48 205H179Q191 205 197 201T207 186Q210 167 223 155T257 139T305 134Q356 134 389 157T431 222Q440 265 417 283T345 302H234Q223 302
217 309T214 327L225 383Q228 395 235 404T249 417L442 556H165Q154 556 149 563T145 581L165 675Q167 686 176 693T195 700H655Q666 700 671 693T675 675L657 590Q655 579 649 571T635 557L452 416L460 414Q515 407 555 384T612 319T615 211Q600 143 552 94T431
17T274 -10Z" />
<glyph unicode="4" glyph-name="four" horiz-adv-x="694" d="M340 0Q329 0 323 7T319 25L343 138H20Q9 138 4 145T0 163L20 258Q23 269 27 275T37 287L413 683Q429 700 453 700H611Q622 700 628 693T632 675L549 287H637Q649 287 654 280T658 262L636 163Q635
152 626 145T606 138H517L493 25Q491 15 483 8T463 0H340ZM213 280H378L427 511L213 280Z" />
<glyph unicode="5" glyph-name="five" horiz-adv-x="645" d="M267 -11Q176 -11 116 18T28 94T10 198Q12 207 19 213T35 219H169Q182 219 189 214T197 200Q200 177 210 162T239 140T281 133Q310 133 336 145T383 180T410 237Q419 282 399 309T329 337Q306 337 289
332T260 318T238 305T219 299H87Q77 299 73 307T71 324L181 670Q186 685 196 692T220 700H621Q632 700 638 693T642 675L621 581Q619 570 611 563T591 556H301L260 427Q285 441 315 451T398 461Q445 461 485 444T554 395T593 320T593 225Q579 155 539 102T431 19T267
-11Z" />
<glyph unicode="6" glyph-name="six" horiz-adv-x="651" d="M280 -10Q191 -10 131 22T46 110T35 240Q42 271 58 301T93 359T131 408T163 443L389 680Q394 685 404 692T429 700H562Q571 700 575 694T578 678Q577 674 576 671T572 665L397 481Q404 483 412 483T428
484Q473 482 513 464T582 415T624 341T625 244Q611 174 563 117T441 25T280 -10ZM309 134Q338 134 366 146T414 183T441 241Q449 276 439 299T406 335T353 347Q324 347 296 335T248 300T220 241Q213 207 223 183T256 147T309 134Z" />
<glyph unicode="7" glyph-name="seven" horiz-adv-x="573" d="M92 0Q83 0 79 6T76 22Q77 28 80 31L421 549H121Q111 549 106 556T102 575L123 675Q125 686 134 693T154 700H621Q633 700 638 693T641 675L623 586Q619 571 614 561T602 541L261 24Q257 18 247 9T221 0H92Z" />
<glyph unicode="8" glyph-name="eight" horiz-adv-x="674" d="M286 -10Q192 -10 130 21T41 104T26 214Q38 269 75 309T158 372Q133 395 119 431T115 514Q126 570 163 614T263 684T410 710Q494 710 550 682T632 608T647 505Q638 460 614 428T548 372Q588 345 605
300T611 203Q598 143 559 95T452 18T286 -10ZM296 118Q329 118 357 129T405 161T431 210Q440 253 414 277T340 301Q308 301 280 290T231 259T205 210Q196 166 222 142T296 118ZM361 422Q390 422 415 432T458 460T480 502Q489 538 467 560T400 582Q370 582 345 572T303
544T280 502Q273 466 293 444T361 422Z" />
<glyph unicode="9" glyph-name="nine" horiz-adv-x="641" d="M125 0Q116 0 112 6T109 22Q110 27 112 30T116 35L298 228Q283 225 268 225Q223 228 184 245T117 293T78 366T78 460Q88 508 116 552T187 632T288 689T417 710Q489 710 539 692T620 640T659 562T658
467Q649 421 624 382T568 309T505 239L298 20Q294 15 284 8T258 0H125ZM344 357Q374 357 400 369T446 405T472 461Q479 494 470 517T440 553T389 566Q359 566 333 554T287 518T261 461Q255 428 263 405T293 370T344 357Z" />
<glyph unicode=":" glyph-name="colon" horiz-adv-x="292" d="M94 350Q84 350 78 357T75 375L100 496Q102 506 111 513T131 521H257Q268 521 274 514T277 496L252 375Q250 365 241 358T221 350H94ZM20 0Q10 0 4 7T0 25L25 146Q27 156 36 163T56 171H183Q194 171
199 164T203 146L177 25Q175 15 167 8T147 0H20Z" />
<glyph unicode=";" glyph-name="semicolon" horiz-adv-x="300" d="M-6 -75Q-15 -75 -19 -69T-20 -53L51 143Q56 156 67 166T95 177H212Q220 177 224 172T227 158Q227 155 223 147L106 -47Q100 -57 90 -66T63 -75H-6ZM122 350Q111 350 105 357T101 375L127 496Q129
506 138 513T157 521H284Q295 521 300 514T304 496L278 375Q277 365 268 358T248 350H122Z" />
<glyph unicode="&lt;" glyph-name="less" horiz-adv-x="517" d="M392 7Q388 7 384 9T376 13L67 258Q56 268 51 277T48 302L54 333Q58 348 67 357T93 376L505 621Q510 624 515 626T524 628Q532 628 537 622T540 607L517 499Q514 484 504 475T481 460L233 317L420
173Q429 167 436 159T440 135L417 27Q415 18 408 13T392 7Z" />
<glyph unicode="=" glyph-name="equal" horiz-adv-x="568" d="M48 111Q37 111 32 118T28 136L44 214Q46 225 55 232T75 239H469Q479 239 484 232T488 214L472 136Q470 126 461 119T442 111H48ZM101 361Q90 361 85 368T81 386L97 464Q99 475 108 482T128 489H522Q532
489 537 482T541 464L525 386Q523 376 514 369T495 361H101Z" />
<glyph unicode="&gt;" glyph-name="greater" horiz-adv-x="516" d="M29 6Q21 6 17 11T13 27L36 134Q40 151 50 159T72 173L321 317L133 460Q125 466 118 474T113 499L137 607Q139 616 146 621T161 627Q165 627 169 625T177 621L485 376Q498 366 503 357T505 332L499
301Q496 286 487 277T460 258L48 13Q44 10 39 8T29 6Z" />
<glyph unicode="?" glyph-name="question" horiz-adv-x="597" d="M230 212Q222 212 218 217T214 231Q215 237 216 243T220 254Q232 289 256 317T308 370T363 415T409 456T435 498Q442 520 435 535T411 558T373 566Q333 566 306 547T261 491Q255 480 247 474T224
467H102Q92 467 87 474T84 494Q94 534 120 572T189 641T288 691T415 710Q490 710 535 692T603 645T630 584T629 523Q620 487 601 458T557 405T506 358T457 313T419 265Q416 258 413 252T406 238Q398 225 390 219T370 212H230ZM187 0Q176 0 171 7T167 25L191 139Q193
149 202 156T222 164H350Q361 164 367 157T371 139L346 25Q344 15 335 8T315 0H187Z" />
<glyph unicode="@" glyph-name="at" horiz-adv-x="845" d="M352 -130Q260 -130 197 -107T96 -42T46 59T41 186Q43 200 47 223T56 272T67 321T77 357Q96 420 133 477T226 579T352 649T511 675Q615 675 681 652T782 585T826 484T827 357Q824 336 819 313T809 267T800
231Q786 181 757 147T691 96T615 79Q582 79 559 88T523 108T504 130Q494 118 477 104T433 79T361 69Q287 69 256 124T244 273Q264 368 317 423T445 478Q485 478 505 465T535 432L538 445Q541 456 549 463T569 470H620Q631 470 636 463T640 445L597 243Q590 210
600 193T636 176Q656 176 669 186T691 212T702 242Q707 264 713 292T725 352Q736 428 719 478T647 553T490 578Q405 578 344 550T241 470T177 352Q172 335 165 304T151 242T143 191Q133 85 187 26T373 -33Q436 -33 474 -26T538 -6T584 20Q593 26 600 30T618 34H689Q699
34 705 27T708 9Q707 5 705 2T699 -6Q665 -38 616 -66T501 -112T352 -130ZM401 166Q441 166 465 192T502 273Q509 310 506 333T488 369T446 381Q408 381 383 355T345 273Q338 239 341 215T360 179T401 166Z" />
<glyph unicode="A" glyph-name="A" horiz-adv-x="721" d="M-31 0Q-43 0 -48 10T-47 30L324 672Q330 683 341 691T369 700H523Q540 700 547 692T556 672L654 30Q657 16 649 8T631 0H510Q495 0 489 7T480 24L463 123H196L136 21Q131 14 123 7T99 0H-31ZM267 267H453L416
531L267 267Z" />
<glyph unicode="B" glyph-name="B" horiz-adv-x="705" d="M32 0Q22 0 16 7T12 25L150 675Q152 686 161 693T180 700H473Q554 700 607 676T682 608T692 502Q684 464 665 437T623 392T580 367Q615 348 636 308T645 212Q631 146 597 99T504 26T359 0H32ZM214 130H353Q395
130 423 155T458 212Q466 247 451 271T389 295H249L214 130ZM276 422H404Q445 422 471 443T504 497Q511 529 497 549T442 570H308L276 422Z" />
<glyph unicode="C" glyph-name="C" horiz-adv-x="701" d="M307 -10Q239 -10 185 7T94 58T44 143T41 261Q48 302 58 349T79 439Q101 526 147 587T264 679T430 710Q494 710 549 694T642 647T698 571T705 469Q703 460 697 454T681 448H545Q532 448 526 453T517 474Q518
526 490 546T416 566Q361 566 321 536T264 434Q243 352 228 266Q216 195 241 165T320 134Q367 134 403 154T464 226Q472 241 480 246T501 252H637Q646 252 651 246T654 231Q640 175 611 131T537 55T436 7T307 -10Z" />
<glyph unicode="D" glyph-name="D" horiz-adv-x="716" d="M32 0Q22 0 16 7T12 25L150 675Q152 686 161 693T180 700H424Q489 700 543 682T636 630T691 544T695 427Q688 383 681 350T663 274Q640 181 598 120T486 30T313 0H32ZM217 144H322Q366 144 397 157T449
200T481 276Q488 305 493 328T503 374T513 425Q525 493 498 524T405 556H305L217 144Z" />
<glyph unicode="E" glyph-name="E" horiz-adv-x="638" d="M32 0Q22 0 16 7T12 25L150 675Q152 686 161 693T180 700H647Q658 700 664 693T668 675L648 581Q646 570 637 563T617 556H299L269 421H566Q577 421 582 414T586 395L567 308Q565 298 557 291T537 283H240L211
144H537Q548 144 553 137T557 119L537 25Q535 15 527 8T507 0H32Z" />
<glyph unicode="F" glyph-name="F" horiz-adv-x="619" d="M32 0Q22 0 16 7T12 25L150 675Q152 686 161 693T180 700H640Q651 700 656 693T660 675L639 574Q637 563 629 556T609 549H300L269 402H557Q568 402 573 395T577 376L556 276Q554 266 545 259T525 251H237L188
25Q186 15 178 8T158 0H32Z" />
<glyph unicode="G" glyph-name="G" horiz-adv-x="720" d="M308 -10Q213 -10 152 21T65 113T55 261Q63 304 73 352T94 445Q115 530 166 589T292 679T461 710Q536 710 590 692T677 642T723 574T730 501Q728 492 721 486T703 480H557Q547 480 542 483T534 494Q531
509 521 525T490 554T431 566Q374 566 335 536T279 440Q269 398 260 354T242 266Q230 196 257 165T342 134Q379 134 411 147T467 187T498 258L502 277H408Q397 277 392 284T388 303L404 377Q406 388 415 395T435 403H687Q698 403 703 396T707 377L683 263Q665 177
613 116T482 23T308 -10Z" />
<glyph unicode="H" glyph-name="H" horiz-adv-x="745" d="M32 0Q22 0 16 7T12 25L150 675Q152 686 161 693T180 700H309Q320 700 326 693T330 675L279 434H525L576 675Q578 686 586 693T606 700H735Q746 700 752 693T756 675L617 25Q615 15 607 8T587 0H458Q447
0 442 7T438 25L491 274H245L192 25Q190 15 181 8T161 0H32Z" />
<glyph unicode="I" glyph-name="I" horiz-adv-x="324" d="M32 0Q21 0 15 7T11 25L150 675Q152 686 161 693T180 700H315Q325 700 331 693T335 675L197 25Q195 15 186 8T167 0H32Z" />
<glyph unicode="J" glyph-name="J" horiz-adv-x="667" d="M265 -10Q214 -10 164 4T73 48T13 120T3 220Q5 229 12 235T28 242H164Q178 242 184 235T192 214Q192 172 213 153T277 134Q331 134 364 166T410 262L471 551H148Q137 551 132 558T128 576L149 675Q151
686 159 693T179 700H663Q674 700 680 693T684 675L595 257Q577 170 536 111T428 21T265 -10Z" />
<glyph unicode="K" glyph-name="K" horiz-adv-x="656" d="M32 0Q22 0 16 7T12 25L150 675Q152 686 160 693T179 700H306Q317 700 323 693T327 675L280 457L502 681Q508 687 518 693T545 700H693Q707 700 710 688T706 667L399 352L588 33Q596 20 587 10T567 0H427Q411
0 403 6T391 20L241 270L188 25Q186 15 178 8T159 0H32Z" />
<glyph unicode="L" glyph-name="L" horiz-adv-x="592" d="M32 0Q22 0 16 7T12 25L150 675Q152 686 161 693T180 700H312Q323 700 329 693T333 675L221 151H523Q534 151 539 144T543 125L522 25Q520 15 512 8T492 0H32Z" />
<glyph unicode="M" glyph-name="M" horiz-adv-x="828" d="M33 0Q22 0 16 7T12 25L150 675Q152 686 161 693T181 700H289Q305 700 311 692T320 678L429 363L672 678Q675 683 684 691T710 700H819Q830 700 835 693T839 675L701 25Q699 15 691 8T671 0H550Q540 0
534 7T530 25L608 394L455 191Q448 183 439 176T415 168H363Q349 168 343 175T334 191L263 403L183 25Q181 15 172 8T153 0H33Z" />
<glyph unicode="N" glyph-name="N" horiz-adv-x="720" d="M32 0Q22 0 16 7T12 25L150 675Q152 686 160 693T180 700H286Q302 700 308 693T316 681L479 294L560 675Q562 686 571 693T590 700H710Q721 700 727 693T731 675L592 26Q590 15 582 8T562 0H456Q440 0
434 7T426 19L261 392L183 25Q181 15 172 8T152 0H32Z" />
<glyph unicode="O" glyph-name="O" horiz-adv-x="712" d="M306 -10Q243 -10 190 7T99 58T46 143T41 262Q49 305 58 348T78 435Q111 570 197 640T429 710Q492 710 545 693T636 640T689 554T693 435Q686 392 677 349T657 262Q623 125 537 58T306 -10ZM320 134Q374
134 414 166T472 268Q483 312 491 351T507 432Q520 502 495 534T416 566Q362 566 322 534T264 432Q253 390 245 351T228 268Q216 198 240 166T320 134Z" />
<glyph unicode="P" glyph-name="P" horiz-adv-x="677" d="M32 0Q22 0 16 7T12 25L150 675Q152 686 161 693T180 700H446Q507 700 556 686T639 643T685 571T686 469Q662 354 585 299T379 244H244L198 25Q196 15 188 8T168 0H32ZM271 382H386Q426 382 458 404T501
471Q506 497 503 517T483 549T429 561H309L271 382Z" />
<glyph unicode="Q" glyph-name="Q" horiz-adv-x="712" d="M453 -65Q437 -65 431 -57T420 -42L396 3Q354 -10 304 -10Q212 -10 151 20T64 110T54 262Q62 305 71 348T91 435Q114 525 166 586T292 679T457 710Q548 710 609 679T697 587T707 435Q700 392 691 349T670
262Q638 138 557 70L608 -34Q610 -39 609 -44Q608 -52 601 -58T584 -65H453ZM336 134Q388 134 428 166T485 268Q496 312 504 351T520 432Q528 479 519 508T486 552T427 566Q375 566 335 534T276 432Q266 390 258 351T242 268Q234 221 243 192T276 148T336 134Z"
/>
<glyph unicode="R" glyph-name="R" horiz-adv-x="691" d="M46 0Q35 0 30 7T26 25L164 675Q166 686 175 693T195 700H467Q597 700 658 641T696 472Q681 401 637 352T531 278L616 32Q617 29 617 27T616 21Q615 13 607 7T591 0H458Q439 0 433 9T423 27L356 247H254L206
25Q204 15 195 8T175 0H46ZM283 389H399Q446 389 474 412T511 474Q519 513 502 537T435 561H320L283 389Z" />
<glyph unicode="S" glyph-name="S" horiz-adv-x="662" d="M280 -10Q181 -10 117 18T26 92T6 191Q8 199 14 205T30 212H158Q172 212 178 207T190 194Q194 179 206 165T239 143T293 134Q351 134 386 152T427 201Q433 224 420 238T373 263T283 287Q210 303 163 331T98
404T92 511Q112 603 191 656T397 710Q461 710 511 692T596 644T645 581T655 515Q654 507 647 501T631 494H497Q487 494 480 498T467 511Q467 533 444 549T383 566Q340 566 311 551T275 503Q270 483 280 468T320 442T403 419Q490 402 540 374T607 302T612 197Q591
95 506 43T280 -10Z" />
<glyph unicode="T" glyph-name="T" horiz-adv-x="627" d="M185 0Q174 0 168 7T164 25L275 543H97Q87 543 81 550T77 568L100 675Q102 686 110 693T130 700H668Q679 700 684 693T688 675L665 568Q663 558 655 551T635 543H458L347 25Q345 15 337 8T317 0H185Z" />
<glyph unicode="U" glyph-name="U" horiz-adv-x="725" d="M312 -10Q248 -10 195 6T105 57T55 143T57 267L143 675Q145 686 154 693T174 700H303Q314 700 319 693T323 675L236 268Q222 203 243 171T325 138Q385 138 423 170T475 268L562 675Q564 686 573 693T592
700H721Q732 700 738 693T742 675L655 267Q625 124 542 57T312 -10Z" />
<glyph unicode="V" glyph-name="V" horiz-adv-x="693" d="M206 0Q189 0 181 9T171 30L103 673Q102 686 109 693T127 700H247Q263 700 270 692T278 674L321 212L561 674Q565 683 575 691T601 700H735Q747 700 750 691T749 670L409 30Q403 18 392 9T362 0H206Z" />
<glyph unicode="W" glyph-name="W" horiz-adv-x="825" d="M120 0Q103 0 95 10T87 33L108 677Q109 686 116 693T133 700H254Q268 700 274 694T280 676L264 292L383 518Q388 526 397 535T422 545H493Q510 545 515 536T521 518L546 289L694 678Q702 700 729 700H857Q868
700 872 692T872 675L635 33Q630 20 618 10T588 0H491Q474 0 468 9T459 26L410 312L258 26Q254 18 244 9T216 0H120Z" />
<glyph unicode="X" glyph-name="X" horiz-adv-x="690" d="M-28 0Q-41 0 -45 11T-41 33L259 361L105 668Q100 679 107 689T128 700H257Q276 700 282 692T291 679L385 491L550 679Q555 684 564 692T592 700H734Q747 700 751 689T747 667L462 337L615 32Q620 21 614
11T592 0H464Q446 0 439 8T430 20L337 203L168 20Q165 16 156 8T127 0H-28Z" />
<glyph unicode="Y" glyph-name="Y" horiz-adv-x="679" d="M212 0Q201 0 196 7T192 25L237 240L96 668Q92 680 100 690T121 700H239Q254 700 260 693T269 679L357 422L554 679Q558 685 568 692T593 700H728Q744 700 746 689T741 668L417 240L371 25Q369 15 361
8T341 0H212Z" />
<glyph unicode="Z" glyph-name="Z" horiz-adv-x="648" d="M-1 0Q-11 0 -17 7T-21 26L0 123Q4 137 11 146T22 159L419 551H126Q115 551 110 558T106 576L127 675Q129 686 137 693T157 700H661Q672 700 678 693T682 675L661 578Q659 567 653 559T640 544L252 151H556Q567
151 573 144T576 125L555 25Q553 15 545 8T525 0H-1Z" />
<glyph unicode="[" glyph-name="bracketleft" horiz-adv-x="382" d="M-10 -159Q-21 -159 -26 -152T-31 -134L158 751Q160 762 168 769T188 776H434Q445 776 451 769T455 751L436 665Q434 654 425 647T406 640H289L150 -12H267Q277 -12 283 -19T287 -37L266 -134Q264
-144 256 -151T236 -159H-10Z" />
<glyph unicode="\" glyph-name="backslash" horiz-adv-x="525" d="M323 -84Q306 -84 299 -76T290 -57L122 758Q120 770 126 778T146 786H227Q243 786 250 778T260 759L425 -56Q427 -67 421 -75T402 -84H323Z" />
<glyph unicode="]" glyph-name="bracketright" horiz-adv-x="382" d="M397 776Q408 776 414 769T418 751L229 -134Q227 -144 219 -151T199 -159H-47Q-57 -159 -62 -152T-67 -134L-46 -37Q-44 -26 -36 -19T-16 -12H100L239 640H123Q112 640 107 647T103 665L122
751Q124 762 132 769T151 776H397Z" />
<glyph unicode="^" glyph-name="asciicircum" horiz-adv-x="464" d="M139 588Q124 588 127 602Q128 610 138 617L263 725Q276 736 284 739T302 743H381Q391 743 398 740T412 725L492 617Q498 610 496 602Q493 588 478 588H430Q422 588 414 589T397 595L320 643L222
595Q214 590 205 589T186 588H139Z" />
<glyph unicode="_" glyph-name="underscore" horiz-adv-x="733" d="M-5 -72Q-15 -72 -21 -65T-25 -47L-5 47Q-3 58 6 65T25 73H619Q630 73 635 66T639 47L619 -47Q617 -57 609 -64T589 -72H-5Z" />
<glyph unicode="`" glyph-name="grave" horiz-adv-x="293" d="M178 595Q164 595 157 598T143 609L34 717Q30 723 31 731Q34 750 53 750H192Q204 750 211 747T225 731L290 625Q294 619 292 611Q289 595 273 595H178Z" />
<glyph unicode="a" glyph-name="a" horiz-adv-x="626" d="M195 -10Q147 -10 111 5T52 51T23 125T25 225Q29 245 32 260T40 296Q53 349 76 392T131 466T205 513T299 530Q360 530 391 513T442 469L447 495Q449 506 457 513T477 520H589Q600 520 605 513T609 495L510
25Q508 15 500 8T480 0H367Q357 0 351 7T347 25L354 57Q323 28 288 9T195 -10ZM265 124Q298 124 321 138T359 176T380 226Q386 246 389 264T396 301Q401 326 397 347T376 382T328 396Q296 396 274 382T239 344T216 291Q212 276 208 260T202 229Q199 200 201 176T218
138T265 124Z" />
<glyph unicode="b" glyph-name="b" horiz-adv-x="630" d="M320 -10Q264 -10 227 9T171 57L164 25Q162 15 154 8T134 0H22Q11 0 6 7T2 25L142 685Q144 696 152 703T172 710H294Q305 710 310 703T314 685L269 471Q299 497 333 513T417 530Q467 530 503 514T562 467T592
394T590 297Q587 278 584 261T574 223Q556 150 521 98T436 18T320 -10ZM285 124Q319 124 341 138T377 176T400 229Q405 244 408 260T413 291Q418 320 415 344T397 382T348 396Q317 396 293 383T254 348T232 301Q227 282 223 264T217 226Q212 199 216 176T236 139T285
124Z" />
<glyph unicode="c" glyph-name="c" horiz-adv-x="589" d="M240 -10Q171 -10 117 17T37 95T23 219Q26 235 31 259T40 300Q67 410 144 470T338 530Q405 530 451 511T524 461T561 401T569 347Q568 337 560 330T540 322H411Q401 322 396 327T388 343Q386 373 371 387T325
401Q285 401 257 375T215 295Q210 276 206 258T200 224Q190 169 205 144T260 119Q291 119 313 132T352 176Q359 186 366 191T383 196H512Q522 196 528 189T531 171Q525 151 507 121T454 60T367 10T240 -10Z" />
<glyph unicode="d" glyph-name="d" horiz-adv-x="630" d="M197 -10Q148 -10 112 5T53 51T23 125T24 225Q28 245 31 260T40 296Q53 349 76 392T131 466T204 513T295 530Q346 530 382 514T436 471L482 685Q484 696 492 703T511 710H633Q644 710 650 703T654 685L513
25Q511 15 503 8T483 0H371Q360 0 354 7T350 25L357 57Q327 28 291 9T197 -10ZM266 124Q299 124 323 138T362 176T384 226Q389 246 393 264T400 301Q404 326 399 347T378 382T329 396Q298 396 276 382T239 344T215 291Q211 276 208 260T202 229Q198 200 201 176T219
138T266 124Z" />
<glyph unicode="e" glyph-name="e" horiz-adv-x="592" d="M248 -10Q170 -10 118 18T46 104T41 244Q43 251 45 262T49 279Q69 358 113 414T221 500T362 530Q450 530 500 495T566 400T567 263L562 239Q560 228 551 221T531 214H211Q211 213 211 211T209 207Q204
178 208 154T228 116T271 102Q291 102 305 108T331 123T349 138Q360 149 366 151T384 154H508Q518 154 523 148T525 132Q520 115 500 91T443 44T358 5T248 -10ZM232 313H401L402 315Q410 348 405 371T383 408T339 421Q312 421 291 408T256 372T233 315L232 313Z"
/>
<glyph unicode="f" glyph-name="f" horiz-adv-x="440" d="M80 0Q70 0 64 7T60 25L137 389H61Q50 389 45 396T41 414L58 495Q60 506 69 513T89 520H165L172 552Q187 620 220 661T302 721T416 740H509Q519 740 524 733T528 715L511 634Q509 623 500 616T481 609H413Q380
609 362 593T337 547L331 520H452Q462 520 467 513T471 495L455 414Q452 403 444 396T424 389H303L226 25Q224 15 216 8T196 0H80Z" />
<glyph unicode="g" glyph-name="g" horiz-adv-x="633" d="M211 -220Q137 -220 90 -200T17 -152T-18 -97T-25 -53Q-23 -42 -15 -35T4 -27H133Q143 -27 148 -32T154 -48Q157 -59 162 -70T182 -90T223 -98Q250 -98 272 -89T311 -58T336 0L350 67Q320 42 286 27T201
11Q149 11 112 26T54 71T26 144T28 243Q30 258 32 269T39 296Q53 349 75 392T129 466T201 513T294 530Q348 530 386 510T441 458L449 495Q451 505 460 512T480 520H595Q606 520 611 513T615 495L514 14Q502 -43 478 -86T417 -160T329 -205T211 -220ZM270 141Q301
141 324 155T363 191T386 238Q388 249 392 269T398 299Q402 325 398 347T377 382T328 396Q297 396 275 382T237 344T214 291Q212 281 209 269T205 246Q201 217 203 193T221 155T270 141Z" />
<glyph unicode="h" glyph-name="h" horiz-adv-x="650" d="M22 0Q11 0 5 7T1 25L142 685Q144 696 152 703T172 710H300Q311 710 316 703T320 685L273 462Q304 493 343 511T435 530Q496 530 538 504T597 428T598 304L539 25Q537 15 528 8T509 0H380Q369 0 363 7T359
25L417 298Q427 345 412 370T354 396Q326 396 303 385T262 352T237 298L180 25Q178 15 170 8T150 0H22Z" />
<glyph unicode="i" glyph-name="i" horiz-adv-x="286" d="M22 0Q11 0 5 7T1 25L101 495Q103 506 112 513T132 520H250Q261 520 266 513T269 495L170 25Q168 15 160 8T140 0H22ZM147 595Q136 595 131 602T126 620L146 710Q148 720 157 727T176 735H296Q307 735
312 728T316 710L297 620Q295 609 286 602T267 595H147Z" />
<glyph unicode="j" glyph-name="j" horiz-adv-x="303" d="M-131 -190Q-142 -190 -147 -183T-150 -165L-133 -84Q-131 -73 -123 -66T-103 -59H-64Q-32 -59 -15 -39T10 14L112 495Q114 506 123 513T143 520H266Q277 520 282 513T286 495L183 10Q170 -55 138 -99T56
-167T-67 -190H-131ZM158 595Q147 595 142 602T137 620L157 710Q159 720 168 727T187 735H313Q323 735 329 728T333 710L313 620Q312 609 303 602T283 595H158Z" />
<glyph unicode="k" glyph-name="k" horiz-adv-x="588" d="M22 0Q11 0 5 7T1 25L142 685Q144 696 152 703T172 710H287Q298 710 304 703T308 685L237 352L404 503Q412 510 420 515T442 520H585Q602 520 603 507T591 481L370 276L517 36Q525 24 518 12T495 0H364Q351
0 345 5T334 16L208 220L167 25Q165 15 157 8T137 0H22Z" />
<glyph unicode="l" glyph-name="l" horiz-adv-x="287" d="M22 0Q11 0 5 7T1 25L142 685Q144 696 152 703T172 710H290Q301 710 306 703T310 685L170 25Q168 15 160 8T140 0H22Z" />
<glyph unicode="m" glyph-name="m" horiz-adv-x="916" d="M22 0Q11 0 5 7T1 25L101 495Q103 506 112 513T132 520H241Q252 520 257 513T261 495L254 461Q271 479 291 494T339 520T405 530Q464 530 500 507T549 444Q581 482 621 506T717 530Q772 530 811 507T866
435T865 309L805 25Q803 15 795 8T775 0H659Q648 0 642 7T638 25L697 302Q705 337 700 357T681 387T645 396Q626 396 606 387T570 358T547 302L488 25Q486 15 478 8T458 0H342Q331 0 325 7T321 25L381 302Q388 337 383 357T363 387T328 396Q309 396 289 387T253
358T230 303L170 25Q168 15 160 8T141 0H22Z" />
<glyph unicode="n" glyph-name="n" horiz-adv-x="643" d="M22 0Q11 0 5 7T1 25L101 495Q103 506 112 513T132 520H247Q258 520 263 513T267 495L259 457Q290 488 333 509T432 530Q495 530 536 504T592 428T591 304L531 25Q529 15 521 8T502 0H376Q365 0 359 7T355
25L413 298Q424 347 411 371T351 396Q306 396 275 371T234 298L177 25Q175 15 166 8T147 0H22Z" />
<glyph unicode="o" glyph-name="o" horiz-adv-x="609" d="M247 -10Q167 -10 113 17T36 94T23 215Q25 235 30 260T42 305Q61 376 100 426T200 503T345 530Q424 530 478 503T557 426T571 305Q567 286 562 261T552 215Q533 145 495 95T396 17T247 -10ZM262 112Q307
112 335 139T377 220Q381 235 386 260T394 300Q403 353 389 380T330 408Q287 408 259 381T217 300Q213 285 208 260T200 220Q191 166 204 139T262 112Z" />
<glyph unicode="p" glyph-name="p" horiz-adv-x="630" d="M-19 -190Q-30 -190 -35 -183T-39 -165L101 495Q103 506 112 513T132 520H244Q255 520 260 513T264 495L257 459Q287 489 323 509T418 530Q467 530 503 515T562 469T592 395T590 295Q587 276 584 261T575
225Q561 172 539 129T484 54T411 7T320 -10Q269 -10 233 7T181 57L133 -165Q131 -175 123 -182T103 -190H-19ZM285 124Q318 124 340 138T376 176T400 229Q405 244 408 260T413 291Q417 320 414 344T396 382T348 396Q316 396 292 382T253 344T231 294Q225 275 222
257T215 219Q211 194 215 173T237 138T285 124Z" />
<glyph unicode="q" glyph-name="q" horiz-adv-x="631" d="M321 -190Q311 -190 306 -183T302 -165L349 57Q319 25 284 8T198 -10Q149 -10 113 6T54 53T24 126T25 223Q29 243 32 260T41 297Q60 371 95 423T180 502T296 530Q351 530 389 510T443 459L451 495Q453
506 462 513T482 520H594Q605 520 610 513T614 495L474 -165Q472 -175 463 -182T443 -190H321ZM267 124Q299 124 322 137T361 172T383 219Q388 239 392 257T399 294Q404 321 400 344T379 381T330 396Q298 396 276 382T239 344T216 291Q212 276 209 260T203 229Q199
200 201 176T219 138T267 124Z" />
<glyph unicode="r" glyph-name="r" horiz-adv-x="456" d="M22 0Q11 0 5 7T1 25L101 495Q103 505 112 512T132 520H247Q258 520 263 513T267 495L259 455Q283 485 319 502T409 520H465Q476 520 481 513T484 495L463 392Q461 382 452 375T432 367H336Q294 367 268
345T231 281L177 25Q175 15 166 8T146 0H22Z" />
<glyph unicode="s" glyph-name="s" horiz-adv-x="553" d="M222 -10Q157 -10 115 4T48 40T15 83T9 123Q11 134 19 141T37 148H151Q154 148 156 147T161 143Q173 136 183 126T209 107T250 99Q277 99 299 110T325 143Q329 159 322 169T289 190T211 210Q161 222 127
241T78 292T73 369Q82 409 115 446T203 506T333 530Q390 530 430 517T495 482T530 439T537 399Q536 389 528 382T510 374H406Q402 374 399 375T393 379Q381 385 371 395T347 413T309 421Q282 421 265 409T243 378Q240 365 246 354T276 334T355 314Q422 303 457
279T503 222T507 153Q497 105 460 68T363 11T222 -10Z" />
<glyph unicode="t" glyph-name="t" horiz-adv-x="462" d="M269 0Q200 0 156 20T95 84T93 197L134 389H56Q45 389 40 396T36 414L53 495Q55 506 64 513T83 520H162L197 685Q199 696 208 703T227 710H343Q354 710 359 703T363 685L328 520H453Q464 520 469 513T473
495L456 414Q454 403 445 396T426 389H300L262 211Q258 189 258 172T268 146T302 137H381Q392 137 397 130T400 112L382 25Q380 15 372 8T352 0H269Z" />
<glyph unicode="u" glyph-name="u" horiz-adv-x="640" d="M195 -10Q135 -10 94 16T37 92T37 216L95 495Q97 506 106 513T126 520H252Q262 520 267 513T271 495L214 222Q207 190 210 168T229 135T275 124Q318 124 349 149T391 222L449 495Q451 506 460 513T479
520H604Q615 520 620 513T624 495L524 25Q522 15 514 8T494 0H379Q368 0 362 7T358 25L366 63Q345 40 321 24T267 -1T195 -10Z" />
<glyph unicode="v" glyph-name="v" horiz-adv-x="595" d="M181 0Q166 0 160 7T152 25L62 492Q60 504 66 512T88 520H194Q207 520 213 514T220 497L268 192L447 499Q451 506 459 513T480 520H601Q613 520 618 511T615 489L328 25Q321 15 313 8T289 0H181Z" />
<glyph unicode="w" glyph-name="w" horiz-adv-x="840" d="M139 0Q125 0 119 7T112 25L65 491Q64 502 72 511T93 520H192Q205 520 211 514T218 499L242 213L392 498Q396 505 404 512T427 520H494Q508 520 513 513T520 498L550 213L695 499Q699 506 707 513T728
520H840Q854 520 856 511T854 490L612 25Q607 15 598 8T575 0H484Q470 0 464 7T455 25L415 299L266 25Q260 15 251 8T227 0H139Z" />
<glyph unicode="x" glyph-name="x" horiz-adv-x="588" d="M-24 0Q-39 0 -42 13T-38 36L183 272L76 485Q71 497 78 508T99 520H217Q230 520 235 514T244 503L309 377L430 503Q434 508 442 514T465 520H591Q605 520 609 507T603 484L394 259L505 35Q511 23 505 12T482
0H362Q350 0 344 5T335 16L266 150L139 16Q135 12 128 6T106 0H-24Z" />
<glyph unicode="y" glyph-name="y" horiz-adv-x="604" d="M52 -190Q40 -190 36 -180T39 -158L161 34L64 491Q62 502 69 511T91 520H197Q210 520 215 514T222 499L278 208L461 499Q465 507 473 513T495 520H614Q626 520 630 511T629 490L204 -169Q199 -177 191
-183T169 -190H52Z" />
<glyph unicode="z" glyph-name="z" horiz-adv-x="552" d="M1 0Q-10 0 -16 7T-20 25L-3 103Q-1 114 4 120T15 132L302 391H91Q81 391 75 398T71 416L88 495Q90 506 99 513T119 520H521Q532 520 537 513T541 495L523 410Q520 395 506 385L226 129H459Q469 129 475
122T478 104L461 25Q459 15 451 8T432 0H1Z" />
<glyph unicode="{" glyph-name="braceleft" horiz-adv-x="425" d="M291 -158Q233 -158 188 -140T114 -86T77 4T84 131Q92 172 86 201T53 245L42 250Q17 265 23 291L31 328Q34 342 42 351T66 368L81 374Q113 389 132 417T160 487Q175 560 206 613T281 703T377 757T489
776H495Q504 776 509 770T512 754L493 663Q492 654 485 648T468 641H465Q422 638 392 621T343 567T310 472Q297 409 267 367T202 309Q221 300 232 276T246 219T241 146Q229 88 233 52T259 -2T322 -23H327Q335 -24 339 -30T342 -45L323 -136Q321 -146 314 -152T296
-158H291Z" />
<glyph unicode="|" glyph-name="bar" horiz-adv-x="264" d="M-20 -208Q-31 -208 -36 -201T-40 -183L184 871Q186 882 195 889T215 896H305Q315 896 320 889T324 871L101 -183Q99 -193 90 -200T70 -208H-20Z" />
<glyph unicode="}" glyph-name="braceright" horiz-adv-x="425" d="M168 776Q227 775 272 758T345 704T382 614T376 487Q367 445 373 417T406 373L417 367Q442 353 436 327L428 290Q423 264 392 250L378 244Q347 230 328 201T300 131Q284 58 253 4T178 -85T82
-139T-30 -158H-36Q-45 -158 -50 -152T-53 -136L-34 -45Q-32 -36 -25 -30T-9 -23H-5Q37 -20 67 -3T116 51T148 145Q162 209 192 251T257 309Q238 319 227 342T213 399T218 472Q231 531 227 566T200 620T137 641H132Q124 642 120 648T117 663L136 754Q138 763 145
769T163 776H168Z" />
<glyph unicode="~" glyph-name="asciitilde" horiz-adv-x="554" d="M77 214Q66 214 63 221T63 243L79 320Q84 338 101 354T146 380T205 390Q240 390 265 384T311 371T356 357T412 351Q438 351 458 361T489 379Q494 381 498 383T508 386Q520 386 523 379T522 356L506
280Q502 262 485 246T440 220T381 210Q346 210 322 216T275 229T229 243T173 249Q147 249 127 239T96 221Q92 219 88 217T77 214Z" />
<glyph unicode="&#xa0;" glyph-name="uni00A0" horiz-adv-x="217" />
<glyph unicode="&#xa1;" glyph-name="exclamdown" horiz-adv-x="284" d="M378 297Q388 297 393 290T397 272L306 -157Q304 -168 295 -175T276 -182H161Q150 -182 145 -175T140 -157L232 272Q234 282 243 289T262 297H378ZM428 518Q439 518 444 511T448 493L422
370Q420 359 411 352T392 344H269Q258 344 253 351T249 370L275 493Q277 503 285 510T305 518H428Z" />
<glyph unicode="&#xa2;" glyph-name="cent" horiz-adv-x="599" d="M164 -100Q153 -100 148 -93T144 -75L159 3Q88 22 50 78T27 219Q30 235 35 259T44 300Q67 392 125 450T271 523L284 585Q286 596 295 603T314 610H414Q424 610 430 603T434 585L420 520Q480 506
514 475T562 408T573 347Q572 337 564 330T544 322H415Q405 322 400 327T392 343Q390 373 375 387T329 401Q289 401 261 375T219 295Q214 276 210 258T204 224Q194 169 209 144T264 119Q295 119 317 132T356 176Q363 186 370 191T387 196H516Q526 196 532 189T535
171Q530 152 515 126T473 74T404 26T307 -4L293 -75Q291 -85 283 -92T263 -100H164Z" />
<glyph unicode="&#xa3;" glyph-name="sterling" horiz-adv-x="721" d="M444 -8Q410 -8 384 -1T337 17T296 39T257 57T215 64Q186 64 169 51T138 14Q135 9 131 5T118 0H13Q5 0 1 5T-2 18Q13 82 52 126T146 190Q149 211 150 232T153 274H78Q67 274 62 281T58 300L74
376Q76 386 85 393T105 401H153Q155 412 157 424T162 450Q180 533 223 591T334 680T491 711Q576 711 633 682T714 601T725 476Q724 467 716 461T699 454H565Q552 454 545 460T536 480Q534 523 517 545T461 567Q415 567 387 536T348 449Q346 436 344 424T340 401H489Q500
401 505 394T509 376L493 300Q491 289 482 282T462 274H319Q317 253 314 232T306 188Q330 183 347 174T379 156T410 141T448 134Q482 134 503 150T541 193Q544 197 549 201T562 206H653Q662 206 666 201T668 187Q654 124 618 81T536 15T444 -8Z" />
<glyph unicode="&#xa4;" glyph-name="currency" horiz-adv-x="613" d="M71 52L31 103Q26 111 28 121T38 138L93 183Q73 236 87 300Q100 364 144 417L108 462Q102 469 104 479T115 497L178 549Q187 556 197 556T213 549L248 503Q277 518 308 526T372 535Q403 535
431 527T482 503L536 549Q545 556 555 556T572 549L612 497Q617 490 615 480T605 462L550 417Q559 391 561 362T557 300Q550 268 535 239T499 183L535 138Q541 131 539 121T528 103L466 52Q456 45 446 45T430 52L395 97Q336 65 272 65Q208 65 161 97L107 52Q98
45 88 45T71 52ZM298 188Q329 188 357 203T407 243T434 300Q441 331 431 357T399 398T345 413Q314 413 286 398T237 357T209 300Q203 269 212 244T244 203T298 188Z" />
<glyph unicode="&#xa5;" glyph-name="yen" horiz-adv-x="689" d="M205 0Q195 0 189 7T185 25L232 248L98 668Q96 674 97 679Q98 688 105 694T123 700H241Q256 700 263 693T272 679L354 432L541 679Q545 685 555 692T580 700H713Q722 700 727 694T731 679Q730 676
729 674T726 668L413 248L365 25Q363 15 355 8T335 0H205ZM66 67Q55 67 50 74T45 92L62 170Q64 181 73 188T93 196H531Q542 196 547 189T551 170L534 92Q532 81 523 74T504 67H66ZM98 218Q87 218 81 225T77 243L94 322Q96 332 105 339T125 347H563Q574 347 579
340T583 322L566 243Q564 233 555 226T536 218H98Z" />
<glyph unicode="&#xa6;" glyph-name="brokenbar" horiz-adv-x="269" d="M127 475Q117 475 112 482T108 500L173 804Q175 815 184 822T203 829H294Q304 829 309 822T313 804L248 500Q246 490 237 483T218 475H127ZM27 0Q17 0 11 7T7 25L72 329Q74 340 83 347T102
354H193Q203 354 208 347T212 329L147 25Q145 15 137 8T118 0H27Z" />
<glyph unicode="&#xa7;" glyph-name="section" horiz-adv-x="605" d="M215 -140Q158 -140 118 -126T53 -88T18 -40T12 8Q13 19 21 24T38 30H148Q158 30 163 26T172 15Q175 5 181 -3T200 -18T239 -24Q269 -24 287 -8T311 32Q315 49 310 62T281 86T208 110Q138 129
100 155T51 219T50 308Q59 351 85 384T151 443Q144 459 144 478T148 521Q158 571 193 614T284 684T413 710Q490 710 536 686T602 627T617 563Q616 553 608 547T591 541H480Q470 541 466 545T456 557Q453 566 447 574T428 588T390 594Q360 594 341 578T318 538Q314
521 319 508T348 484T421 461Q491 441 528 415T578 351T578 262Q569 220 543 186T478 127Q485 110 485 91T481 49Q471 -1 436 -44T345 -113T215 -140ZM372 206Q394 213 407 225T424 254Q428 272 423 286T400 311T346 332Q316 342 296 349T256 363Q235 358 222 345T205
316Q201 299 206 286T229 261T284 237Q323 224 372 206Z" />
<glyph unicode="&#xa8;" glyph-name="dieresis" horiz-adv-x="396" d="M256 607Q246 607 241 613T238 630L257 721Q259 731 267 737T285 744H376Q386 744 391 738T395 721L375 630Q373 620 366 614T348 607H256ZM49 607Q39 607 34 613T31 630L51 721Q53 731 60
737T78 744H170Q180 744 185 738T188 721L168 630Q166 620 159 614T141 607H49Z" />
<glyph unicode="&#xa9;" glyph-name="copyright" horiz-adv-x="809" d="M347 -10Q275 -10 215 19T114 98T56 215T56 356Q72 431 111 495T208 607T336 683T484 710Q556 710 616 681T718 602T775 485T776 344Q760 269 720 205T623 93T495 17T347 -10ZM354 70Q412
70 467 92T568 152T646 241T691 350Q703 408 693 458T654 547T580 608T477 630Q420 630 365 608T264 548T186 459T141 350Q128 292 138 242T177 153T251 92T354 70ZM382 158Q333 158 298 178T247 233T237 314Q238 321 240 336T247 366T252 388Q264 434 288 469T352
524T447 544Q504 544 539 525T591 478T603 423Q602 413 594 407T576 401H510Q499 401 495 408T489 422Q487 440 476 448T440 457Q415 457 399 446T374 419T361 385Q359 378 356 365T351 338T347 317Q344 301 344 284T355 256T390 245Q414 245 431 253T459 281Q464
287 470 294T489 301H555Q565 301 570 295T573 279Q566 253 545 225T485 177T382 158Z" />
<glyph unicode="&#xaa;" glyph-name="ordfeminine" horiz-adv-x="355" d="M163 429Q120 429 97 452T78 508Q85 546 120 568T212 600L270 609Q272 616 272 623T269 634T251 638Q235 638 227 634T212 626T196 621H135Q120 621 123 635Q127 647 140 663T180 692T255
705Q315 705 347 677T367 596L336 451Q335 444 329 439T316 434H254Q246 434 243 439T240 451L242 462Q229 447 209 438T163 429ZM195 497Q220 497 236 511T257 550L220 543Q197 538 187 531T175 514Q174 506 179 502T195 497Z" />
<glyph unicode="&#xab;" glyph-name="guillemotleft" horiz-adv-x="621" d="M510 67Q507 67 503 68T493 75L330 275Q325 282 323 289T321 305L332 353Q334 361 339 368T353 383L602 583Q608 588 613 589T621 591Q630 591 635 585T638 570L618 475Q614 460 609
452T591 434L462 329L546 224Q554 214 556 206T556 183L536 88Q534 79 527 73T510 67ZM235 67Q232 67 228 68T219 75L55 275Q50 282 48 289T47 305L57 353Q59 361 64 368T78 383L327 583Q333 588 338 589T347 591Q356 591 360 585T363 570L343 475Q340 460 335
452T317 434L188 329L272 224Q280 214 282 206T281 183L261 88Q259 79 252 73T235 67Z" />
<glyph unicode="&#xac;" glyph-name="logicalnot" horiz-adv-x="571" d="M372 134Q361 134 356 141T352 159L373 259H74Q63 259 58 266T54 284L70 362Q72 372 81 379T101 387H505Q515 387 520 380T524 362L482 159Q479 148 471 141T451 134H372Z" />
<glyph unicode="&#xad;" glyph-name="uni00AD" horiz-adv-x="600" d="M66 228Q55 228 50 235T46 253L66 347Q69 358 77 365T96 372H410Q421 372 427 365T430 347L410 253Q408 242 399 235T379 228H66Z" />
<glyph unicode="&#xae;" glyph-name="registered" horiz-adv-x="809" d="M348 -10Q275 -10 215 19T114 98T57 215T56 356Q72 431 111 495T208 607T336 683T484 710Q556 710 616 681T718 602T776 485T776 344Q760 269 721 205T624 93T496 17T348 -10ZM355 70Q412
70 467 92T568 152T647 241T692 350Q704 408 694 458T655 547T581 608T477 630Q421 630 366 608T265 548T186 459T140 350Q128 292 138 242T178 153T252 92T355 70ZM253 168Q243 168 239 174T236 190L304 512Q309 534 331 534H460Q496 534 530 523T584 484T595
412Q587 372 564 347T512 309L543 204Q544 201 544 198T544 190Q543 182 536 175T517 168H460Q450 168 444 172T435 187L410 290H362L341 190Q336 168 314 168H253ZM379 373H435Q460 373 472 385T488 412Q491 429 485 440T452 452H396L379 373Z" />
<glyph unicode="&#xaf;" glyph-name="overscore" horiz-adv-x="371" d="M49 605Q39 605 34 611T31 628L46 698Q48 708 56 714T74 721H353Q363 721 367 715T370 698L355 628Q354 618 346 612T328 605H49Z" />
<glyph unicode="&#xb0;" glyph-name="degree" horiz-adv-x="410" d="M222 373Q172 373 137 395T87 456T82 542Q92 590 123 628T197 688T289 710Q339 710 374 688T424 628T429 542Q419 494 388 456T314 396T222 373ZM237 466Q270 466 297 487T331 542Q339 576 324
597T274 618Q241 618 214 597T179 542Q172 508 187 487T237 466Z" />
<glyph unicode="&#xb1;" glyph-name="plusminus" horiz-adv-x="567" d="M222 189Q212 189 206 196T202 214L234 361H91Q80 361 75 368T70 386L86 460Q88 470 97 477T116 485H260L290 628Q292 638 301 645T321 653H403Q414 653 419 646T423 628L392 485H534Q545
485 550 478T554 460L538 386Q537 376 528 369T508 361H366L335 214Q333 203 324 196T305 189H222ZM24 0Q14 0 8 7T4 25L19 99Q22 109 30 116T50 124H448Q458 124 464 117T467 99L452 25Q450 15 442 8T422 0H24Z" />
<glyph unicode="&#xb2;" glyph-name="uni00B2" horiz-adv-x="356" d="M74 350Q64 350 60 356T57 372L64 406Q66 414 72 421T95 440Q161 481 202 506T263 551T288 589Q291 604 285 613T259 623Q244 623 235 618T221 606T213 595Q204 584 199 581T185 577H126Q107
577 112 596Q121 627 145 651T204 690T277 705Q341 705 372 674T393 593Q386 562 366 537T312 488T230 435H351Q361 435 365 429T368 413L360 372Q355 350 333 350H74Z" />
<glyph unicode="&#xb3;" glyph-name="uni00B3" horiz-adv-x="354" d="M197 345Q142 345 113 360T74 397T67 436Q68 446 76 450T88 455H127Q136 455 144 453T159 449Q167 447 171 442T183 433T211 429Q234 429 248 437T267 460Q270 478 259 484T226 490H180Q171
490 167 496T164 511L169 535Q171 543 174 547T184 557L255 612H143Q133 612 128 618T125 634L135 678Q140 700 161 700H385Q395 700 400 694T403 678L394 639Q393 631 389 625T374 611L300 561Q344 553 364 528T375 458Q368 424 343 399T281 360T197 345Z" />
<glyph unicode="&#xb4;" glyph-name="acute" horiz-adv-x="339" d="M44 595Q28 595 31 611Q33 619 39 624L150 731Q163 743 171 746T191 750H323Q340 750 338 732Q337 723 330 718L175 609Q165 602 156 599T133 595H44Z" />
<glyph unicode="&#xb5;" glyph-name="uni00B5" horiz-adv-x="655" d="M-19 -199Q-29 -199 -34 -192T-38 -174L103 495Q105 506 114 513T134 520H263Q274 520 279 513T283 495L225 222Q218 191 225 169T249 136T291 124Q316 124 339 135T380 169T404 222L462 495Q464
506 473 513T493 520H618Q629 520 634 513T637 495L538 25Q536 15 528 8T508 0H392Q382 0 376 7T372 25L380 63Q347 28 305 11T206 -6Q176 -6 154 3T115 27T83 60L203 118L141 -174Q139 -185 130 -192T110 -199H-19Z" />
<glyph unicode="&#xb6;" glyph-name="paragraph" horiz-adv-x="629" d="M72 511Q83 563 118 606T201 674T302 700H620Q631 700 637 693T641 675L481 -75Q479 -85 470 -92T450 -100H368Q358 -100 353 -93T349 -75L489 585H410L270 -75Q268 -85 259 -92T239 -100H157Q146
-100 141 -93T137 -75L222 321Q170 321 132 346T78 415T72 511Z" />
<glyph unicode="&#xb7;" glyph-name="middot" horiz-adv-x="337" d="M52 313Q59 348 82 376T137 421T204 438Q239 438 263 421T298 376T302 313Q295 279 272 250T217 205T150 188Q116 188 91 204T56 250T52 313Z" />
<glyph unicode="&#xb8;" glyph-name="cedilla" horiz-adv-x="253" d="M115 -220Q88 -220 65 -211T33 -190T37 -169L58 -153Q68 -145 74 -148T89 -156T117 -161Q132 -161 143 -153T157 -131Q160 -119 153 -111T130 -102Q118 -102 107 -105T87 -109T73 -104L55 -80Q51
-73 53 -65T63 -46L111 27H181L126 -50Q133 -47 143 -46T160 -44Q195 -44 211 -70T220 -135Q212 -173 186 -196T115 -220Z" />
<glyph unicode="&#xb9;" glyph-name="uni00B9" horiz-adv-x="308" d="M173 350Q163 350 159 356T156 372L199 580L140 541Q133 536 124 537T110 546L91 581Q87 589 90 597T101 612L225 693Q236 700 249 700H309Q319 700 324 694T327 678L262 372Q257 350 235 350H173Z" />
<glyph unicode="&#xba;" glyph-name="ordmasculine" horiz-adv-x="352" d="M210 429Q149 429 114 458T88 542Q89 550 93 567T99 592Q114 648 151 676T254 705Q292 705 321 692T366 654T375 592Q374 585 370 568T364 542Q355 505 337 480T288 442T210 429ZM217
502Q235 502 246 511T263 545Q265 553 268 567T273 589Q276 611 271 621T247 632Q228 632 217 622T200 589Q198 582 195 568T190 545Q187 521 192 512T217 502Z" />
<glyph unicode="&#xbb;" glyph-name="guillemotright" horiz-adv-x="621" d="M317 67Q308 67 303 73T300 88L320 183Q324 198 330 206T347 224L476 329L392 434Q385 444 382 452T382 475L402 570Q404 579 411 585T428 591Q431 591 435 590T444 583L608 383Q614
376 616 369T617 353L606 305Q605 297 600 290T585 275L336 75Q330 70 325 69T317 67ZM42 67Q33 67 29 73T26 88L46 183Q49 198 55 206T72 224L201 329L117 434Q110 444 107 452T108 475L128 570Q130 579 137 585T154 591Q157 591 161 590T170 583L333 383Q339
376 341 369T342 353L332 305Q330 297 325 290T310 275L61 75Q56 70 51 69T42 67Z" />
<glyph unicode="&#xbc;" glyph-name="onequarter" horiz-adv-x="872" d="M173 350Q163 350 159 356T156 372L199 580L140 541Q133 536 124 537T110 546L91 581Q87 589 90 597T101 612L225 693Q236 700 249 700H309Q319 700 324 694T327 678L262 372Q257 350 235
350H173ZM72 0Q57 0 54 10T59 31L691 681Q700 690 708 695T730 700H788Q803 700 807 690T800 669L169 19Q160 10 152 5T130 0H72ZM664 0Q654 0 650 6T647 22L654 57H505Q494 57 490 63T487 79L497 126Q498 128 501 136T515 156L685 332Q695 343 703 346T718 350H797Q807
350 812 344T815 328L776 147H811Q821 147 825 141T828 125L819 79Q814 57 792 57H757L750 22Q745 0 723 0H664ZM606 144H674L695 240L606 144Z" />
<glyph unicode="&#xbd;" glyph-name="onehalf" horiz-adv-x="855" d="M173 350Q163 350 159 356T156 372L199 580L140 541Q133 536 124 537T110 546L91 581Q87 589 90 597T101 612L225 693Q236 700 249 700H309Q319 700 324 694T327 678L262 372Q257 350 235 350H173ZM72
0Q57 0 54 10T59 31L691 681Q700 690 708 695T730 700H788Q803 700 807 690T800 669L169 19Q160 10 152 5T130 0H72ZM498 0Q488 0 484 6T481 22L488 56Q490 64 496 71T519 90Q585 131 626 156T687 201T712 239Q715 254 709 263T683 273Q668 273 659 268T645 256T637
245Q628 234 623 231T609 227H550Q531 227 536 246Q545 277 569 301T628 340T701 355Q765 355 796 324T817 243Q810 212 790 187T736 138T654 85H775Q785 85 789 79T792 63L784 22Q779 0 757 0H498Z" />
<glyph unicode="&#xbe;" glyph-name="threequarters" horiz-adv-x="918" d="M197 345Q142 345 113 360T74 397T67 436Q68 446 76 450T88 455H127Q136 455 144 453T159 449Q167 447 171 442T183 433T211 429Q234 429 248 437T267 460Q270 478 259 484T226 490H180Q171
490 167 496T164 511L169 535Q171 543 174 547T184 557L255 612H143Q133 612 128 618T125 634L135 678Q140 700 161 700H385Q395 700 400 694T403 678L394 639Q393 631 389 625T374 611L300 561Q344 553 364 528T375 458Q368 424 343 399T281 360T197 345ZM118
0Q103 0 100 10T105 31L737 681Q746 690 754 695T776 700H834Q849 700 853 690T846 669L215 19Q206 10 198 5T176 0H118ZM710 0Q700 0 696 6T693 22L700 57H551Q540 57 536 63T533 79L543 126Q544 128 547 136T561 156L731 332Q741 343 749 346T764 350H843Q853
350 858 344T861 328L822 147H857Q867 147 871 141T874 125L865 79Q860 57 838 57H803L796 22Q791 0 769 0H710ZM652 144H720L741 240L652 144Z" />
<glyph unicode="&#xbf;" glyph-name="questiondown" horiz-adv-x="592" d="M525 307Q534 307 538 302T541 288Q540 282 539 276T535 265Q523 230 499 202T447 149T392 104T346 62T320 21Q314 0 321 -15T345 -39T382 -48Q423 -48 450 -29T494 28Q501 39 509 45T531
52H653Q663 52 668 45T671 25Q661 -15 635 -53T566 -122T468 -172T341 -191Q266 -191 221 -173T152 -126T125 -65T127 -4Q136 32 154 61T198 114T250 161T298 206T336 254Q340 261 343 267T349 281Q358 294 365 300T385 307H525ZM569 519Q579 519 584 512T588 494L564
380Q562 369 553 362T534 355H405Q394 355 389 362T385 380L409 494Q411 504 420 511T440 519H569Z" />
<glyph unicode="&#xc0;" glyph-name="Agrave" horiz-adv-x="721" d="M-31 0Q-43 0 -48 10T-47 30L324 672Q330 683 341 691T369 700H523Q540 700 547 692T556 672L654 30Q657 16 649 8T631 0H510Q495 0 489 7T480 24L463 123H196L136 21Q131 14 123 7T99 0H-31ZM267
267H453L416 531L267 267ZM415 750Q401 750 394 753T380 764L271 872Q266 877 268 886Q271 905 291 905H425Q437 905 443 902T458 886L523 779Q527 773 525 766Q522 750 506 750H415Z" />
<glyph unicode="&#xc1;" glyph-name="Aacute" horiz-adv-x="721" d="M-31 0Q-43 0 -48 10T-47 30L324 672Q330 683 341 691T369 700H523Q540 700 547 692T556 672L654 30Q657 16 649 8T631 0H510Q495 0 489 7T480 24L463 123H196L136 21Q131 14 123 7T99 0H-31ZM267
267H453L416 531L267 267ZM389 750Q373 750 375 765Q377 773 383 778L495 886Q508 898 516 901T536 905H676Q684 905 688 900T691 887Q691 879 683 873L527 764Q517 757 509 754T486 750H389Z" />
<glyph unicode="&#xc2;" glyph-name="Acircumflex" horiz-adv-x="721" d="M-31 0Q-43 0 -48 10T-47 30L324 672Q330 683 341 691T369 700H523Q540 700 547 692T556 672L654 30Q657 16 649 8T631 0H510Q495 0 489 7T480 24L463 123H196L136 21Q131 14 123 7T99
0H-31ZM267 267H453L416 531L267 267ZM271 750Q257 750 259 764Q260 772 267 778L396 888Q408 899 416 902T434 905H519Q529 905 536 902T551 888L632 778Q637 772 635 764Q632 750 617 750H570Q562 750 555 751T540 757L463 806L366 757Q357 753 350 752T333 750H271Z"
/>
<glyph unicode="&#xc3;" glyph-name="Atilde" horiz-adv-x="721" d="M-31 0Q-43 0 -48 10T-47 30L324 672Q330 683 341 691T369 700H523Q540 700 547 692T556 672L654 30Q657 16 649 8T631 0H510Q495 0 489 7T480 24L463 123H196L136 21Q131 14 123 7T99 0H-31ZM267
267H453L416 531L267 267ZM525 745Q497 745 480 754T448 771T416 780Q400 780 392 773T378 758T360 750H300Q293 750 289 755T286 767Q289 783 298 805T323 847T362 881T418 895Q445 895 463 886T495 868T526 859Q542 859 550 867T564 882T582 890H642Q651 890
654 885T656 872Q653 856 644 835T618 793T579 759T525 745Z" />
<glyph unicode="&#xc4;" glyph-name="Adieresis" horiz-adv-x="721" d="M-31 0Q-43 0 -48 10T-47 30L324 672Q330 683 341 691T369 700H523Q540 700 547 692T556 672L654 30Q657 16 649 8T631 0H510Q495 0 489 7T480 24L463 123H196L136 21Q131 14 123 7T99 0H-31ZM267
267H453L416 531L267 267ZM523 750Q513 750 509 756T506 773L525 864Q527 874 534 880T553 887H644Q654 887 659 881T662 864L643 773Q641 762 633 756T615 750H523ZM287 750Q277 750 272 756T269 773L288 864Q290 874 298 880T316 887H408Q418 887 423 881T426
864L406 773Q404 762 396 756T378 750H287Z" />
<glyph unicode="&#xc5;" glyph-name="Aring" horiz-adv-x="721" d="M-31 0Q-43 0 -48 10T-47 30L324 672Q330 683 341 691T369 700H523Q540 700 547 692T556 672L654 30Q657 16 649 8T631 0H510Q495 0 489 7T480 24L463 123H196L136 21Q131 14 123 7T99 0H-31ZM267
267H453L416 531L267 267ZM449 740Q411 740 389 765T374 828Q383 866 414 890T484 915Q522 915 545 891T559 828Q551 789 519 765T449 740ZM459 798Q473 798 483 806T497 828Q500 841 494 849T474 858Q460 858 450 850T437 828Q434 815 440 807T459 798Z" />
<glyph unicode="&#xc6;" glyph-name="AE" horiz-adv-x="989" d="M-25 0Q-39 0 -42 11T-40 32L329 672Q335 684 346 692T373 700H998Q1009 700 1014 693T1018 675L998 581Q996 570 988 563T968 556H668L639 421H916Q927 421 933 414T937 395L918 308Q916 298 907
291T887 283H610L580 144H888Q899 144 904 137T908 119L888 25Q886 15 878 8T858 0H402Q391 0 385 7T381 25L402 123H202L141 21Q136 14 128 7T104 0H-25ZM273 267H432L494 553H433L273 267Z" />
<glyph unicode="&#xc7;" glyph-name="Ccedilla" horiz-adv-x="701" d="M242 -220Q215 -220 195 -211T169 -190T174 -169L196 -153Q206 -145 212 -147T226 -155T254 -161Q269 -161 280 -153T295 -131Q298 -119 291 -111T268 -102Q256 -102 245 -105T225 -109T211
-104L196 -84Q191 -78 193 -71T203 -52L233 -6Q159 3 111 36T45 125T41 261Q48 302 58 349T79 439Q101 526 152 587T277 679T445 710Q511 710 563 694T651 646T701 570T704 469Q703 460 695 454T678 448H543Q530 448 525 453T517 474Q515 527 488 546T414 566Q359
566 320 536T263 434Q253 393 245 351T228 266Q216 195 241 165T322 134Q368 134 404 154T465 226Q472 241 480 246T501 252H636Q645 252 650 246T653 231Q641 175 608 131T526 55T418 7T292 -10L264 -50Q270 -47 281 -46T298 -44Q334 -44 350 -68T359 -131Q350
-169 319 -194T242 -220Z" />
<glyph unicode="&#xc8;" glyph-name="Egrave" horiz-adv-x="638" d="M32 0Q22 0 16 7T12 25L150 675Q152 686 161 693T180 700H647Q658 700 664 693T668 675L648 581Q646 570 637 563T617 556H299L269 421H566Q577 421 582 414T586 395L567 308Q565 298 557 291T537
283H240L211 144H537Q548 144 553 137T557 119L537 25Q535 15 527 8T507 0H32ZM382 750Q368 750 361 753T347 764L238 872Q233 877 235 886Q238 905 258 905H392Q404 905 410 902T425 886L490 779Q494 773 492 766Q489 750 473 750H382Z" />
<glyph unicode="&#xc9;" glyph-name="Eacute" horiz-adv-x="638" d="M32 0Q22 0 16 7T12 25L150 675Q152 686 161 693T180 700H647Q658 700 664 693T668 675L648 581Q646 570 637 563T617 556H299L269 421H566Q577 421 582 414T586 395L567 308Q565 298 557 291T537
283H240L211 144H537Q548 144 553 137T557 119L537 25Q535 15 527 8T507 0H32ZM357 750Q341 750 343 765Q345 773 351 778L463 886Q476 898 484 901T504 905H644Q652 905 656 900T659 887Q659 879 651 873L495 764Q485 757 477 754T454 750H357Z" />
<glyph unicode="&#xca;" glyph-name="Ecircumflex" horiz-adv-x="638" d="M32 0Q22 0 16 7T12 25L150 675Q152 686 161 693T180 700H647Q658 700 664 693T668 675L648 581Q646 570 637 563T617 556H299L269 421H566Q577 421 582 414T586 395L567 308Q565 298 557
291T537 283H240L211 144H537Q548 144 553 137T557 119L537 25Q535 15 527 8T507 0H32ZM239 750Q225 750 227 764Q228 772 235 778L364 888Q376 899 384 902T402 905H487Q497 905 504 902T519 888L600 778Q605 772 603 764Q600 750 585 750H538Q530 750 523 751T508
757L431 806L334 757Q325 753 318 752T301 750H239Z" />
<glyph unicode="&#xcb;" glyph-name="Edieresis" horiz-adv-x="638" d="M32 0Q22 0 16 7T12 25L150 675Q152 686 161 693T180 700H647Q658 700 664 693T668 675L648 581Q646 570 637 563T617 556H299L269 421H566Q577 421 582 414T586 395L567 308Q565 298 557
291T537 283H240L211 144H537Q548 144 553 137T557 119L537 25Q535 15 527 8T507 0H32ZM491 750Q481 750 477 756T474 773L493 864Q495 874 502 880T521 887H612Q622 887 627 881T630 864L611 773Q609 762 601 756T583 750H491ZM255 750Q245 750 240 756T237 773L256
864Q258 874 266 880T284 887H376Q386 887 391 881T394 864L374 773Q372 762 364 756T346 750H255Z" />
<glyph unicode="&#xcc;" glyph-name="Igrave" horiz-adv-x="324" d="M32 0Q21 0 15 7T11 25L150 675Q152 686 161 693T180 700H315Q325 700 331 693T335 675L197 25Q195 15 186 8T167 0H32ZM222 750Q208 750 201 753T187 764L78 872Q73 877 75 886Q78 905 98 905H232Q244
905 250 902T265 886L330 779Q334 773 332 766Q329 750 313 750H222Z" />
<glyph unicode="&#xcd;" glyph-name="Iacute" horiz-adv-x="324" d="M32 0Q21 0 15 7T11 25L150 675Q152 686 161 693T180 700H315Q325 700 331 693T335 675L197 25Q195 15 186 8T167 0H32ZM197 750Q181 750 183 765Q185 773 191 778L303 886Q316 898 324 901T344
905H484Q492 905 496 900T499 887Q499 879 491 873L335 764Q325 757 317 754T294 750H197Z" />
<glyph unicode="&#xce;" glyph-name="Icircumflex" horiz-adv-x="324" d="M32 0Q21 0 15 7T11 25L150 675Q152 686 161 693T180 700H315Q325 700 331 693T335 675L197 25Q195 15 186 8T167 0H32ZM79 750Q65 750 67 764Q68 772 75 778L204 888Q216 899 224 902T242
905H327Q337 905 344 902T359 888L440 778Q445 772 443 764Q440 750 425 750H378Q370 750 363 751T348 757L271 806L174 757Q165 753 158 752T141 750H79Z" />
<glyph unicode="&#xcf;" glyph-name="Idieresis" horiz-adv-x="324" d="M32 0Q21 0 15 7T11 25L150 675Q152 686 161 693T180 700H315Q325 700 331 693T335 675L197 25Q195 15 186 8T167 0H32ZM331 750Q321 750 317 756T314 773L333 864Q335 874 342 880T361 887H452Q462
887 467 881T470 864L451 773Q449 762 441 756T423 750H331ZM95 750Q85 750 80 756T77 773L96 864Q98 874 106 880T124 887H216Q226 887 231 881T234 864L214 773Q212 762 204 756T186 750H95Z" />
<glyph unicode="&#xd0;" glyph-name="Eth" horiz-adv-x="732" d="M49 0Q38 0 32 7T28 25L85 293H38Q27 293 22 300T18 318L33 387Q35 398 44 405T63 412H111L166 675Q168 686 177 693T197 700H440Q505 700 560 682T653 630T707 544T712 427Q704 383 697 350T679
274Q656 181 614 120T502 30T330 0H49ZM233 144H339Q382 144 413 157T465 200T497 276Q505 305 510 328T519 374T529 425Q541 493 515 524T421 556H321L291 412H382Q392 412 397 405T401 387L387 318Q385 307 376 300T356 293H265L233 144Z" />
<glyph unicode="&#xd1;" glyph-name="Ntilde" horiz-adv-x="720" d="M32 0Q22 0 16 7T12 25L150 675Q152 686 160 693T180 700H286Q302 700 308 693T316 681L479 294L560 675Q562 686 571 693T590 700H710Q721 700 727 693T731 675L592 26Q590 15 582 8T562 0H456Q440
0 434 7T426 19L261 392L183 25Q181 15 172 8T152 0H32ZM518 745Q490 745 473 754T441 771T409 780Q393 780 385 773T371 758T353 750H293Q286 750 282 755T279 767Q282 783 291 805T316 847T355 881T411 895Q438 895 456 886T488 868T519 859Q535 859 543 867T557
882T575 890H635Q644 890 647 885T649 872Q646 856 637 835T611 793T572 759T518 745Z" />
<glyph unicode="&#xd2;" glyph-name="Ograve" horiz-adv-x="712" d="M306 -10Q243 -10 190 7T99 58T46 143T41 262Q49 305 58 348T78 435Q111 570 197 640T429 710Q492 710 545 693T636 640T689 554T693 435Q686 392 677 349T657 262Q623 125 537 58T306 -10ZM320
134Q374 134 414 166T472 268Q483 312 491 351T507 432Q520 502 495 534T416 566Q362 566 322 534T264 432Q253 390 245 351T228 268Q216 198 240 166T320 134ZM410 750Q396 750 389 753T375 764L266 872Q261 877 263 886Q266 905 286 905H420Q432 905 438 902T453
886L518 779Q522 773 520 766Q517 750 501 750H410Z" />
<glyph unicode="&#xd3;" glyph-name="Oacute" horiz-adv-x="712" d="M306 -10Q243 -10 190 7T99 58T46 143T41 262Q49 305 58 348T78 435Q111 570 197 640T429 710Q492 710 545 693T636 640T689 554T693 435Q686 392 677 349T657 262Q623 125 537 58T306 -10ZM320
134Q374 134 414 166T472 268Q483 312 491 351T507 432Q520 502 495 534T416 566Q362 566 322 534T264 432Q253 390 245 351T228 268Q216 198 240 166T320 134ZM384 750Q368 750 370 765Q372 773 378 778L490 886Q503 898 511 901T531 905H671Q679 905 683 900T686
887Q686 879 678 873L522 764Q512 757 504 754T481 750H384Z" />
<glyph unicode="&#xd4;" glyph-name="Ocircumflex" horiz-adv-x="712" d="M306 -10Q243 -10 190 7T99 58T46 143T41 262Q49 305 58 348T78 435Q111 570 197 640T429 710Q492 710 545 693T636 640T689 554T693 435Q686 392 677 349T657 262Q623 125 537 58T306
-10ZM320 134Q374 134 414 166T472 268Q483 312 491 351T507 432Q520 502 495 534T416 566Q362 566 322 534T264 432Q253 390 245 351T228 268Q216 198 240 166T320 134ZM266 750Q252 750 254 764Q255 772 262 778L391 888Q403 899 411 902T429 905H514Q524 905
531 902T546 888L627 778Q632 772 630 764Q627 750 612 750H565Q557 750 550 751T535 757L458 806L361 757Q352 753 345 752T328 750H266Z" />
<glyph unicode="&#xd5;" glyph-name="Otilde" horiz-adv-x="712" d="M306 -10Q243 -10 190 7T99 58T46 143T41 262Q49 305 58 348T78 435Q111 570 197 640T429 710Q492 710 545 693T636 640T689 554T693 435Q686 392 677 349T657 262Q623 125 537 58T306 -10ZM320
134Q374 134 414 166T472 268Q483 312 491 351T507 432Q520 502 495 534T416 566Q362 566 322 534T264 432Q253 390 245 351T228 268Q216 198 240 166T320 134ZM520 745Q492 745 475 754T443 771T411 780Q395 780 387 773T373 758T355 750H295Q288 750 284 755T281
767Q284 783 293 805T318 847T357 881T413 895Q440 895 458 886T490 868T521 859Q537 859 545 867T559 882T577 890H637Q646 890 649 885T651 872Q648 856 639 835T613 793T574 759T520 745Z" />
<glyph unicode="&#xd6;" glyph-name="Odieresis" horiz-adv-x="712" d="M306 -10Q243 -10 190 7T99 58T46 143T41 262Q49 305 58 348T78 435Q111 570 197 640T429 710Q492 710 545 693T636 640T689 554T693 435Q686 392 677 349T657 262Q623 125 537 58T306 -10ZM320
134Q374 134 414 166T472 268Q483 312 491 351T507 432Q520 502 495 534T416 566Q362 566 322 534T264 432Q253 390 245 351T228 268Q216 198 240 166T320 134ZM518 750Q508 750 504 756T501 773L520 864Q522 874 529 880T548 887H639Q649 887 654 881T657 864L638
773Q636 762 628 756T610 750H518ZM282 750Q272 750 267 756T264 773L283 864Q285 874 293 880T311 887H403Q413 887 418 881T421 864L401 773Q399 762 391 756T373 750H282Z" />
<glyph unicode="&#xd7;" glyph-name="multiply" horiz-adv-x="598" d="M94 55L26 142Q21 149 23 159T34 177L192 306L91 436Q85 444 87 454T98 472L185 543Q194 550 204 550T221 543L322 411L483 544Q492 552 502 552T518 544L586 458Q592 451 590 441T579 423L418
291L520 162Q525 154 523 144T512 126L426 56Q416 49 406 49T390 56L288 185L129 55Q120 48 110 48T94 55Z" />
<glyph unicode="&#xd8;" glyph-name="Oslash" horiz-adv-x="712" d="M306 -10Q243 -10 190 7T99 58T46 143T41 262Q49 305 58 348T78 435Q111 570 197 640T429 710Q492 710 545 693T636 640T689 554T693 435Q686 392 677 349T657 262Q623 125 537 58T306 -10ZM320
134Q374 134 414 166T472 268Q483 312 491 351T507 432Q520 502 495 534T416 566Q362 566 322 534T264 432Q253 390 245 351T228 268Q216 198 240 166T320 134ZM29 191Q17 191 12 202T16 226L663 1007Q665 1010 671 1015T687 1021H721Q734 1021 739 1010T735 987L86
206Q84 203 79 197T61 191H29Z" />
<glyph unicode="&#xd9;" glyph-name="Ugrave" horiz-adv-x="725" d="M312 -10Q248 -10 195 6T105 57T55 143T57 267L143 675Q145 686 154 693T174 700H303Q314 700 319 693T323 675L236 268Q222 203 243 171T325 138Q385 138 423 170T475 268L562 675Q564 686
573 693T592 700H721Q732 700 738 693T742 675L655 267Q625 124 542 57T312 -10ZM413 750Q399 750 392 753T378 764L269 872Q264 877 266 886Q269 905 289 905H423Q435 905 441 902T456 886L521 779Q525 773 523 766Q520 750 504 750H413Z" />
<glyph unicode="&#xda;" glyph-name="Uacute" horiz-adv-x="725" d="M312 -10Q248 -10 195 6T105 57T55 143T57 267L143 675Q145 686 154 693T174 700H303Q314 700 319 693T323 675L236 268Q222 203 243 171T325 138Q385 138 423 170T475 268L562 675Q564 686
573 693T592 700H721Q732 700 738 693T742 675L655 267Q625 124 542 57T312 -10ZM387 750Q371 750 373 765Q375 773 381 778L493 886Q506 898 514 901T534 905H674Q682 905 686 900T689 887Q689 879 681 873L525 764Q515 757 507 754T484 750H387Z" />
<glyph unicode="&#xdb;" glyph-name="Ucircumflex" horiz-adv-x="725" d="M312 -10Q248 -10 195 6T105 57T55 143T57 267L143 675Q145 686 154 693T174 700H303Q314 700 319 693T323 675L236 268Q222 203 243 171T325 138Q385 138 423 170T475 268L562 675Q564
686 573 693T592 700H721Q732 700 738 693T742 675L655 267Q625 124 542 57T312 -10ZM269 750Q255 750 257 764Q258 772 265 778L394 888Q406 899 414 902T432 905H517Q527 905 534 902T549 888L630 778Q635 772 633 764Q630 750 615 750H568Q560 750 553 751T538
757L461 806L364 757Q355 753 348 752T331 750H269Z" />
<glyph unicode="&#xdc;" glyph-name="Udieresis" horiz-adv-x="725" d="M312 -10Q248 -10 195 6T105 57T55 143T57 267L143 675Q145 686 154 693T174 700H303Q314 700 319 693T323 675L236 268Q222 203 243 171T325 138Q385 138 423 170T475 268L562 675Q564 686
573 693T592 700H721Q732 700 738 693T742 675L655 267Q625 124 542 57T312 -10ZM522 750Q512 750 508 756T505 773L524 864Q526 874 533 880T552 887H643Q653 887 658 881T661 864L642 773Q640 762 632 756T614 750H522ZM286 750Q276 750 271 756T268 773L287
864Q289 874 297 880T315 887H407Q417 887 422 881T425 864L405 773Q403 762 395 756T377 750H286Z" />
<glyph unicode="&#xdd;" glyph-name="Yacute" horiz-adv-x="679" d="M212 0Q201 0 196 7T192 25L237 240L96 668Q92 680 100 690T121 700H239Q254 700 260 693T269 679L357 422L554 679Q558 685 568 692T593 700H728Q744 700 746 689T741 668L417 240L371 25Q369
15 361 8T341 0H212ZM354 750Q338 750 340 765Q342 773 348 778L460 886Q473 898 481 901T501 905H641Q649 905 653 900T656 887Q656 879 648 873L492 764Q482 757 474 754T451 750H354Z" />
<glyph unicode="&#xde;" glyph-name="Thorn" horiz-adv-x="677" d="M32 0Q22 0 16 7T12 25L150 675Q152 686 161 693T180 700H316Q327 700 333 693T337 675L317 585H422Q483 585 532 571T614 527T661 455T662 354Q637 238 561 183T354 128H220L198 25Q196 15 188
8T168 0H32ZM246 266H361Q402 266 434 288T476 355Q482 381 479 401T458 434T404 446H284L246 266Z" />
<glyph unicode="&#xdf;" glyph-name="germandbls" horiz-adv-x="639" d="M35 0Q24 0 19 7T16 25L110 471Q125 537 163 591T265 677T421 710Q513 710 562 681T628 607T633 512Q626 479 612 453T577 408T534 376Q566 362 583 339T604 283T599 211Q591 174 568 137T508
69T419 19T298 0H248Q234 0 229 7T225 25L241 102Q243 112 252 119T275 127H301Q350 127 382 152T423 218Q432 257 411 283T337 309H311Q298 309 294 316T291 334L305 401Q307 411 313 418T336 426H358Q405 427 434 447T470 504Q477 538 457 560T394 583Q352 583
322 557T279 473L183 25Q181 15 172 8T153 0H35Z" />
<glyph unicode="&#xe0;" glyph-name="agrave" horiz-adv-x="626" d="M195 -10Q147 -10 111 5T52 51T23 125T25 225Q29 245 32 260T40 296Q53 349 76 392T131 466T205 513T299 530Q360 530 391 513T442 469L447 495Q449 506 457 513T477 520H589Q600 520 605 513T609
495L510 25Q508 15 500 8T480 0H367Q357 0 351 7T347 25L354 57Q323 28 288 9T195 -10ZM265 124Q298 124 321 138T359 176T380 226Q386 246 389 264T396 301Q401 326 397 347T376 382T328 396Q296 396 274 382T239 344T216 291Q212 276 208 260T202 229Q199 200
201 176T218 138T265 124ZM339 595Q325 595 318 598T304 609L195 717Q191 723 192 731Q195 750 214 750H353Q365 750 372 747T386 731L451 625Q455 619 453 611Q450 595 434 595H339Z" />
<glyph unicode="&#xe1;" glyph-name="aacute" horiz-adv-x="626" d="M195 -10Q147 -10 111 5T52 51T23 125T25 225Q29 245 32 260T40 296Q53 349 76 392T131 466T205 513T299 530Q360 530 391 513T442 469L447 495Q449 506 457 513T477 520H589Q600 520 605 513T609
495L510 25Q508 15 500 8T480 0H367Q357 0 351 7T347 25L354 57Q323 28 288 9T195 -10ZM265 124Q298 124 321 138T359 176T380 226Q386 246 389 264T396 301Q401 326 397 347T376 382T328 396Q296 396 274 382T239 344T216 291Q212 276 208 260T202 229Q199 200
201 176T218 138T265 124ZM310 595Q294 595 297 611Q299 619 305 624L416 731Q429 743 437 746T457 750H589Q606 750 604 732Q603 723 596 718L441 609Q431 602 422 599T399 595H310Z" />
<glyph unicode="&#xe2;" glyph-name="acircumflex" horiz-adv-x="626" d="M195 -10Q147 -10 111 5T52 51T23 125T25 225Q29 245 32 260T40 296Q53 349 76 392T131 466T205 513T299 530Q360 530 391 513T442 469L447 495Q449 506 457 513T477 520H589Q600 520 605
513T609 495L510 25Q508 15 500 8T480 0H367Q357 0 351 7T347 25L354 57Q323 28 288 9T195 -10ZM265 124Q298 124 321 138T359 176T380 226Q386 246 389 264T396 301Q401 326 397 347T376 382T328 396Q296 396 274 382T239 344T216 291Q212 276 208 260T202 229Q199
200 201 176T218 138T265 124ZM197 595Q183 595 185 609Q186 617 193 623L322 733Q334 744 342 747T360 750H439Q449 750 456 747T471 733L552 623Q557 617 555 609Q552 595 537 595H493Q485 595 478 596T463 602L386 651L289 602Q280 598 273 597T256 595H197Z"
/>
<glyph unicode="&#xe3;" glyph-name="atilde" horiz-adv-x="626" d="M195 -10Q147 -10 111 5T52 51T23 125T25 225Q29 245 32 260T40 296Q53 349 76 392T131 466T205 513T299 530Q360 530 391 513T442 469L447 495Q449 506 457 513T477 520H589Q600 520 605 513T609
495L510 25Q508 15 500 8T480 0H367Q357 0 351 7T347 25L354 57Q323 28 288 9T195 -10ZM265 124Q298 124 321 138T359 176T380 226Q386 246 389 264T396 301Q401 326 397 347T376 382T328 396Q296 396 274 382T239 344T216 291Q212 276 208 260T202 229Q199 200
201 176T218 138T265 124ZM443 590Q415 590 398 599T368 616T336 625Q323 625 315 618T299 603T281 595H221Q214 595 210 600T207 612Q210 628 219 649T244 691T283 724T338 738Q366 738 383 729T414 712T445 703Q459 703 466 710T481 725T499 733H559Q567 733
571 728T573 715Q570 699 561 678T536 637T497 603T443 590Z" />
<glyph unicode="&#xe4;" glyph-name="adieresis" horiz-adv-x="626" d="M195 -10Q147 -10 111 5T52 51T23 125T25 225Q29 245 32 260T40 296Q53 349 76 392T131 466T205 513T299 530Q360 530 391 513T442 469L447 495Q449 506 457 513T477 520H589Q600 520 605
513T609 495L510 25Q508 15 500 8T480 0H367Q357 0 351 7T347 25L354 57Q323 28 288 9T195 -10ZM265 124Q298 124 321 138T359 176T380 226Q386 246 389 264T396 301Q401 326 397 347T376 382T328 396Q296 396 274 382T239 344T216 291Q212 276 208 260T202 229Q199
200 201 176T218 138T265 124ZM430 607Q420 607 415 613T412 630L431 721Q433 731 441 737T459 744H550Q560 744 565 738T569 721L549 630Q547 620 540 614T522 607H430ZM223 607Q213 607 208 613T205 630L225 721Q227 731 234 737T252 744H344Q354 744 359 738T362
721L342 630Q340 620 333 614T315 607H223Z" />
<glyph unicode="&#xe5;" glyph-name="aring" horiz-adv-x="626" d="M195 -10Q147 -10 111 5T52 51T23 125T25 225Q29 245 32 260T40 296Q53 349 76 392T131 466T205 513T299 530Q360 530 391 513T442 469L447 495Q449 506 457 513T477 520H589Q600 520 605 513T609
495L510 25Q508 15 500 8T480 0H367Q357 0 351 7T347 25L354 57Q323 28 288 9T195 -10ZM265 124Q298 124 321 138T359 176T380 226Q386 246 389 264T396 301Q401 326 397 347T376 382T328 396Q296 396 274 382T239 344T216 291Q212 276 208 260T202 229Q199 200
201 176T218 138T265 124ZM367 590Q329 590 307 615T292 678Q301 716 332 740T402 765Q440 765 463 741T477 678Q469 639 437 615T367 590ZM377 648Q391 648 401 656T415 678Q418 691 412 699T392 708Q378 708 368 700T355 678Q352 665 358 657T377 648Z" />
<glyph unicode="&#xe6;" glyph-name="ae" horiz-adv-x="915" d="M177 -10Q114 -10 74 10T17 66T9 145Q24 216 91 258T256 315L386 334L389 348Q396 384 385 402T334 421Q310 421 293 412T261 393T234 375Q231 371 229 369T222 367H112Q102 367 98 373T95 389Q98
407 116 430T168 477T248 515T359 530Q422 530 458 515T512 474Q547 499 590 514T685 530Q743 530 782 515T846 474T882 413T894 341T887 263L882 239Q880 228 871 221T851 214H535L533 207Q526 170 532 147T555 113T593 102Q613 102 633 111T671 138Q682 148 688
151T706 154H828Q838 154 842 148T845 132Q842 116 822 92T767 45T682 6T570 -10Q504 -10 461 11T393 69Q345 24 289 7T177 -10ZM236 104Q265 104 291 116T336 155T364 222L366 236L278 221Q229 213 204 197T175 158Q172 141 179 129T201 111T236 104ZM556 313H721L722
317Q726 349 722 372T704 408T661 421Q639 421 617 410T579 376T556 317V313Z" />
<glyph unicode="&#xe7;" glyph-name="ccedilla" horiz-adv-x="589" d="M203 -220Q176 -220 154 -211T122 -190T125 -169L146 -153Q156 -145 162 -148T177 -156T205 -161Q221 -161 231 -153T245 -131Q248 -119 241 -111T218 -102Q206 -102 195 -105T175 -109T161
-104L143 -80Q139 -73 141 -65T151 -46L179 -4Q126 7 87 36T30 111T23 219Q26 235 31 259T40 300Q67 410 144 470T338 530Q405 530 451 511T524 461T561 401T569 347Q568 337 560 330T540 322H411Q401 322 396 327T388 343Q386 373 371 387T325 401Q285 401 257
375T215 295Q210 276 206 258T200 224Q190 169 205 144T260 119Q291 119 313 132T352 176Q359 186 366 191T383 196H512Q522 196 528 189T531 171Q525 151 507 121T454 61T368 11T242 -10L214 -49Q221 -47 231 -46T248 -44Q283 -44 299 -70T308 -135Q300 -173 274
-196T203 -220Z" />
<glyph unicode="&#xe8;" glyph-name="egrave" horiz-adv-x="592" d="M248 -10Q170 -10 118 18T46 104T41 244Q43 251 45 262T49 279Q69 358 113 414T221 500T362 530Q450 530 500 495T566 400T567 263L562 239Q560 228 551 221T531 214H211Q211 213 211 211T209
207Q204 178 208 154T228 116T271 102Q291 102 305 108T331 123T349 138Q360 149 366 151T384 154H508Q518 154 523 148T525 132Q520 115 500 91T443 44T358 5T248 -10ZM232 313H401L402 315Q410 348 405 371T383 408T339 421Q312 421 291 408T256 372T233 315L232
313ZM340 595Q326 595 319 598T305 609L196 717Q192 723 193 731Q196 750 215 750H354Q366 750 373 747T387 731L452 625Q456 619 454 611Q451 595 435 595H340Z" />
<glyph unicode="&#xe9;" glyph-name="eacute" horiz-adv-x="592" d="M248 -10Q170 -10 118 18T46 104T41 244Q43 251 45 262T49 279Q69 358 113 414T221 500T362 530Q450 530 500 495T566 400T567 263L562 239Q560 228 551 221T531 214H211Q211 213 211 211T209
207Q204 178 208 154T228 116T271 102Q291 102 305 108T331 123T349 138Q360 149 366 151T384 154H508Q518 154 523 148T525 132Q520 115 500 91T443 44T358 5T248 -10ZM232 313H401L402 315Q410 348 405 371T383 408T339 421Q312 421 291 408T256 372T233 315L232
313ZM311 595Q295 595 298 611Q300 619 306 624L417 731Q430 743 438 746T458 750H590Q607 750 605 732Q604 723 597 718L442 609Q432 602 423 599T400 595H311Z" />
<glyph unicode="&#xea;" glyph-name="ecircumflex" horiz-adv-x="592" d="M248 -10Q170 -10 118 18T46 104T41 244Q43 251 45 262T49 279Q69 358 113 414T221 500T362 530Q450 530 500 495T566 400T567 263L562 239Q560 228 551 221T531 214H211Q211 213 211 211T209
207Q204 178 208 154T228 116T271 102Q291 102 305 108T331 123T349 138Q360 149 366 151T384 154H508Q518 154 523 148T525 132Q520 115 500 91T443 44T358 5T248 -10ZM232 313H401L402 315Q410 348 405 371T383 408T339 421Q312 421 291 408T256 372T233 315L232
313ZM197 595Q183 595 185 609Q186 617 193 623L322 733Q334 744 342 747T360 750H439Q449 750 456 747T471 733L552 623Q557 617 555 609Q552 595 537 595H493Q485 595 478 596T463 602L386 651L289 602Q280 598 273 597T256 595H197Z" />
<glyph unicode="&#xeb;" glyph-name="edieresis" horiz-adv-x="592" d="M248 -10Q170 -10 118 18T46 104T41 244Q43 251 45 262T49 279Q69 358 113 414T221 500T362 530Q450 530 500 495T566 400T567 263L562 239Q560 228 551 221T531 214H211Q211 213 211 211T209
207Q204 178 208 154T228 116T271 102Q291 102 305 108T331 123T349 138Q360 149 366 151T384 154H508Q518 154 523 148T525 132Q520 115 500 91T443 44T358 5T248 -10ZM232 313H401L402 315Q410 348 405 371T383 408T339 421Q312 421 291 408T256 372T233 315L232
313ZM431 607Q421 607 416 613T413 630L432 721Q434 731 442 737T460 744H551Q561 744 566 738T570 721L550 630Q548 620 541 614T523 607H431ZM224 607Q214 607 209 613T206 630L226 721Q228 731 235 737T253 744H345Q355 744 360 738T363 721L343 630Q341 620
334 614T316 607H224Z" />
<glyph unicode="&#xec;" glyph-name="igrave" horiz-adv-x="286" d="M22 0Q11 0 5 7T1 25L101 495Q103 506 112 513T132 520H250Q261 520 266 513T269 495L170 25Q168 15 160 8T140 0H22ZM432 595Q418 595 411 598T397 609L288 717Q284 723 285 731Q288 750 307
750H446Q458 750 465 747T479 731L544 625Q548 619 546 611Q543 595 527 595H432Z" />
<glyph unicode="&#xed;" glyph-name="iacute" horiz-adv-x="286" d="M22 0Q11 0 5 7T1 25L101 495Q103 506 112 513T132 520H250Q261 520 266 513T269 495L170 25Q168 15 160 8T140 0H22ZM147 595Q131 595 134 611Q136 619 142 624L253 731Q266 743 274 746T294
750H426Q443 750 441 732Q440 723 433 718L278 609Q268 602 259 599T236 595H147Z" />
<glyph unicode="&#xee;" glyph-name="icircumflex" horiz-adv-x="286" d="M22 0Q11 0 5 7T1 25L101 495Q103 506 112 513T132 520H250Q261 520 266 513T269 495L170 25Q168 15 160 8T140 0H22ZM290 595Q276 595 278 609Q279 617 286 623L415 733Q427 744 435 747T453
750H532Q542 750 549 747T564 733L645 623Q650 617 648 609Q645 595 630 595H586Q578 595 571 596T556 602L479 651L382 602Q373 598 366 597T349 595H290Z" />
<glyph unicode="&#xef;" glyph-name="idieresis" horiz-adv-x="286" d="M22 0Q11 0 5 7T1 25L101 495Q103 506 112 513T132 520H250Q261 520 266 513T269 495L170 25Q168 15 160 8T140 0H22ZM267 607Q257 607 252 613T249 630L268 721Q270 731 278 737T296 744H387Q397
744 402 738T406 721L386 630Q384 620 377 614T359 607H267ZM60 607Q50 607 45 613T42 630L62 721Q64 731 71 737T89 744H181Q191 744 196 738T199 721L179 630Q177 620 170 614T152 607H60Z" />
<glyph unicode="&#xf0;" glyph-name="eth" horiz-adv-x="605" d="M249 -10Q168 -10 115 18T41 100T37 230Q53 307 97 360T207 442T351 470Q368 470 381 467T406 455Q403 478 397 497T380 535L261 492Q252 489 249 489Q240 489 236 494T233 509L238 534Q240 547
246 553T266 564L342 591Q327 609 310 626T274 659Q268 665 266 670T264 679Q266 688 273 694T290 700H415Q432 700 442 696T459 687Q469 677 479 667T497 646L595 682Q604 685 608 685Q617 685 621 680T624 665L619 640Q617 628 611 622T590 610L537 591Q571 534
581 457T571 267Q570 257 568 247T563 227Q544 152 501 99T394 18T249 -10ZM275 112Q305 112 327 125T363 161T384 212Q387 222 388 229T391 247Q397 276 393 299T373 335T325 348Q294 348 272 335T237 299T217 247Q214 237 212 230T209 212Q204 184 208 161T228
125T275 112Z" />
<glyph unicode="&#xf1;" glyph-name="ntilde" horiz-adv-x="643" d="M22 0Q11 0 5 7T1 25L101 495Q103 506 112 513T132 520H247Q258 520 263 513T267 495L259 457Q290 488 333 509T432 530Q495 530 536 504T592 428T591 304L531 25Q529 15 521 8T502 0H376Q365
0 359 7T355 25L413 298Q424 347 411 371T351 396Q306 396 275 371T234 298L177 25Q175 15 166 8T147 0H22ZM455 590Q427 590 410 599T380 616T348 625Q335 625 327 618T311 603T293 595H233Q226 595 222 600T219 612Q222 628 231 649T256 691T295 724T350 738Q378
738 395 729T426 712T457 703Q471 703 478 710T493 725T511 733H571Q579 733 583 728T585 715Q582 699 573 678T548 637T509 603T455 590Z" />
<glyph unicode="&#xf2;" glyph-name="ograve" horiz-adv-x="609" d="M247 -10Q167 -10 113 17T36 94T23 215Q25 235 30 260T42 305Q61 376 100 426T200 503T345 530Q424 530 478 503T557 426T571 305Q567 286 562 261T552 215Q533 145 495 95T396 17T247 -10ZM262
112Q307 112 335 139T377 220Q381 235 386 260T394 300Q403 353 389 380T330 408Q287 408 259 381T217 300Q213 285 208 260T200 220Q191 166 204 139T262 112ZM334 595Q320 595 313 598T299 609L190 717Q186 723 187 731Q190 750 209 750H348Q360 750 367 747T381
731L446 625Q450 619 448 611Q445 595 429 595H334Z" />
<glyph unicode="&#xf3;" glyph-name="oacute" horiz-adv-x="609" d="M247 -10Q167 -10 113 17T36 94T23 215Q25 235 30 260T42 305Q61 376 100 426T200 503T345 530Q424 530 478 503T557 426T571 305Q567 286 562 261T552 215Q533 145 495 95T396 17T247 -10ZM262
112Q307 112 335 139T377 220Q381 235 386 260T394 300Q403 353 389 380T330 408Q287 408 259 381T217 300Q213 285 208 260T200 220Q191 166 204 139T262 112ZM305 595Q289 595 292 611Q294 619 300 624L411 731Q424 743 432 746T452 750H584Q601 750 599 732Q598
723 591 718L436 609Q426 602 417 599T394 595H305Z" />
<glyph unicode="&#xf4;" glyph-name="ocircumflex" horiz-adv-x="609" d="M247 -10Q167 -10 113 17T36 94T23 215Q25 235 30 260T42 305Q61 376 100 426T200 503T345 530Q424 530 478 503T557 426T571 305Q567 286 562 261T552 215Q533 145 495 95T396 17T247
-10ZM262 112Q307 112 335 139T377 220Q381 235 386 260T394 300Q403 353 389 380T330 408Q287 408 259 381T217 300Q213 285 208 260T200 220Q191 166 204 139T262 112ZM191 595Q177 595 179 609Q180 617 187 623L316 733Q328 744 336 747T354 750H433Q443 750
450 747T465 733L546 623Q551 617 549 609Q546 595 531 595H487Q479 595 472 596T457 602L380 651L283 602Q274 598 267 597T250 595H191Z" />
<glyph unicode="&#xf5;" glyph-name="otilde" horiz-adv-x="609" d="M247 -10Q167 -10 113 17T36 94T23 215Q25 235 30 260T42 305Q61 376 100 426T200 503T345 530Q424 530 478 503T557 426T571 305Q567 286 562 261T552 215Q533 145 495 95T396 17T247 -10ZM262
112Q307 112 335 139T377 220Q381 235 386 260T394 300Q403 353 389 380T330 408Q287 408 259 381T217 300Q213 285 208 260T200 220Q191 166 204 139T262 112ZM438 590Q410 590 393 599T363 616T331 625Q318 625 310 618T294 603T276 595H216Q209 595 205 600T202
612Q205 628 214 649T239 691T278 724T333 738Q361 738 378 729T409 712T440 703Q454 703 461 710T476 725T494 733H554Q562 733 566 728T568 715Q565 699 556 678T531 637T492 603T438 590Z" />
<glyph unicode="&#xf6;" glyph-name="odieresis" horiz-adv-x="609" d="M247 -10Q167 -10 113 17T36 94T23 215Q25 235 30 260T42 305Q61 376 100 426T200 503T345 530Q424 530 478 503T557 426T571 305Q567 286 562 261T552 215Q533 145 495 95T396 17T247 -10ZM262
112Q307 112 335 139T377 220Q381 235 386 260T394 300Q403 353 389 380T330 408Q287 408 259 381T217 300Q213 285 208 260T200 220Q191 166 204 139T262 112ZM425 607Q415 607 410 613T407 630L426 721Q428 731 436 737T454 744H545Q555 744 560 738T564 721L544
630Q542 620 535 614T517 607H425ZM218 607Q208 607 203 613T200 630L220 721Q222 731 229 737T247 744H339Q349 744 354 738T357 721L337 630Q335 620 328 614T310 607H218Z" />
<glyph unicode="&#xf7;" glyph-name="divide" horiz-adv-x="532" d="M164 45Q154 45 148 52T144 70L163 159Q165 170 174 177T193 185H289Q300 185 305 178T309 159L290 70Q288 60 280 53T260 45H164ZM243 416Q232 416 227 423T223 441L242 531Q244 541 253 548T273
556H368Q379 556 384 549T388 531L369 441Q367 431 358 424T338 416H243ZM56 236Q45 236 40 243T36 262L53 339Q55 350 64 357T83 364H477Q488 364 493 357T497 339L480 262Q478 251 469 244T450 236H56Z" />
<glyph unicode="&#xf8;" glyph-name="oslash" horiz-adv-x="609" d="M247 -10Q167 -10 113 17T36 94T23 215Q25 235 30 260T42 305Q61 376 100 426T200 503T345 530Q424 530 478 503T557 426T571 305Q567 286 562 261T552 215Q533 145 495 95T396 17T247 -10ZM262
112Q307 112 335 139T377 220Q381 235 386 260T394 300Q403 353 389 380T330 408Q287 408 259 381T217 300Q213 285 208 260T200 220Q191 166 204 139T262 112ZM4 -28Q-3 -28 -9 -23T-15 -10Q-15 -2 -5 8L539 532Q546 538 553 542T570 547H601Q607 547 613 542T619
529Q619 520 611 512L65 -13Q59 -19 52 -23T34 -28H4Z" />
<glyph unicode="&#xf9;" glyph-name="ugrave" horiz-adv-x="640" d="M195 -10Q135 -10 94 16T37 92T37 216L95 495Q97 506 106 513T126 520H252Q262 520 267 513T271 495L214 222Q207 190 210 168T229 135T275 124Q318 124 349 149T391 222L449 495Q451 506 460
513T479 520H604Q615 520 620 513T624 495L524 25Q522 15 514 8T494 0H379Q368 0 362 7T358 25L366 63Q345 40 321 24T267 -1T195 -10ZM342 595Q328 595 321 598T307 609L198 717Q194 723 195 731Q198 750 217 750H356Q368 750 375 747T389 731L454 625Q458 619
456 611Q453 595 437 595H342Z" />
<glyph unicode="&#xfa;" glyph-name="uacute" horiz-adv-x="640" d="M195 -10Q135 -10 94 16T37 92T37 216L95 495Q97 506 106 513T126 520H252Q262 520 267 513T271 495L214 222Q207 190 210 168T229 135T275 124Q318 124 349 149T391 222L449 495Q451 506 460
513T479 520H604Q615 520 620 513T624 495L524 25Q522 15 514 8T494 0H379Q368 0 362 7T358 25L366 63Q345 40 321 24T267 -1T195 -10ZM313 595Q297 595 300 611Q302 619 308 624L419 731Q432 743 440 746T460 750H592Q609 750 607 732Q606 723 599 718L444 609Q434
602 425 599T402 595H313Z" />
<glyph unicode="&#xfb;" glyph-name="ucircumflex" horiz-adv-x="640" d="M195 -10Q135 -10 94 16T37 92T37 216L95 495Q97 506 106 513T126 520H252Q262 520 267 513T271 495L214 222Q207 190 210 168T229 135T275 124Q318 124 349 149T391 222L449 495Q451 506
460 513T479 520H604Q615 520 620 513T624 495L524 25Q522 15 514 8T494 0H379Q368 0 362 7T358 25L366 63Q345 40 321 24T267 -1T195 -10ZM200 595Q186 595 188 609Q189 617 196 623L325 733Q337 744 345 747T363 750H442Q452 750 459 747T474 733L555 623Q560
617 558 609Q555 595 540 595H496Q488 595 481 596T466 602L389 651L292 602Q283 598 276 597T259 595H200Z" />
<glyph unicode="&#xfc;" glyph-name="udieresis" horiz-adv-x="640" d="M195 -10Q135 -10 94 16T37 92T37 216L95 495Q97 506 106 513T126 520H252Q262 520 267 513T271 495L214 222Q207 190 210 168T229 135T275 124Q318 124 349 149T391 222L449 495Q451 506
460 513T479 520H604Q615 520 620 513T624 495L524 25Q522 15 514 8T494 0H379Q368 0 362 7T358 25L366 63Q345 40 321 24T267 -1T195 -10ZM434 607Q424 607 419 613T416 630L435 721Q437 731 445 737T463 744H554Q564 744 569 738T573 721L553 630Q551 620 544
614T526 607H434ZM227 607Q217 607 212 613T209 630L229 721Q231 731 238 737T256 744H348Q358 744 363 738T366 721L346 630Q344 620 337 614T319 607H227Z" />
<glyph unicode="&#xfd;" glyph-name="yacute" horiz-adv-x="604" d="M52 -190Q40 -190 36 -180T39 -158L161 34L64 491Q62 502 69 511T91 520H197Q210 520 215 514T222 499L278 208L461 499Q465 507 473 513T495 520H614Q626 520 630 511T629 490L204 -169Q199
-177 191 -183T169 -190H52ZM308 595Q292 595 295 611Q297 619 303 624L414 731Q427 743 435 746T455 750H587Q604 750 602 732Q601 723 594 718L439 609Q429 602 420 599T397 595H308Z" />
<glyph unicode="&#xfe;" glyph-name="thorn" horiz-adv-x="630" d="M-19 -190Q-30 -190 -35 -183T-39 -165L142 685Q144 696 152 703T172 710H294Q305 710 311 703T315 685L267 465Q292 491 326 510T418 530Q467 530 503 515T562 469T592 395T590 295Q587 276
584 261T575 225Q561 172 539 129T484 54T411 7T320 -10Q269 -10 233 8T181 57L133 -165Q131 -175 123 -182T103 -190H-19ZM285 124Q318 124 340 138T376 176T400 229Q405 244 408 260T413 291Q417 320 414 344T396 382T348 396Q316 396 292 382T253 344T231 294Q225
275 222 257T215 219Q211 194 215 173T237 138T285 124Z" />
<glyph unicode="&#xff;" glyph-name="ydieresis" horiz-adv-x="604" d="M52 -190Q40 -190 36 -180T39 -158L161 34L64 491Q62 502 69 511T91 520H197Q210 520 215 514T222 499L278 208L461 499Q465 507 473 513T495 520H614Q626 520 630 511T629 490L204 -169Q199
-177 191 -183T169 -190H52ZM428 607Q418 607 413 613T410 630L429 721Q431 731 439 737T457 744H548Q558 744 563 738T567 721L547 630Q545 620 538 614T520 607H428ZM221 607Q211 607 206 613T203 630L223 721Q225 731 232 737T250 744H342Q352 744 357 738T360
721L340 630Q338 620 331 614T313 607H221Z" />
<glyph unicode="&#x2013;" glyph-name="endash" horiz-adv-x="566" d="M66 228Q55 228 50 235T46 253L66 347Q69 358 77 365T96 372H500Q511 372 517 365T520 347L500 253Q498 242 489 235T469 228H66Z" />
<glyph unicode="&#x2014;" glyph-name="emdash" horiz-adv-x="756" d="M66 228Q55 228 50 235T46 253L66 347Q69 358 77 365T96 372H690Q701 372 707 365T710 347L690 253Q688 242 679 235T659 228H66Z" />
<glyph unicode="&#x2018;" glyph-name="quoteleft" horiz-adv-x="278" d="M251 492Q247 480 236 469T208 458H85Q72 458 70 467T72 485L191 682Q197 693 207 701T233 710H309Q317 710 322 703T323 687L251 492Z" />
<glyph unicode="&#x2019;" glyph-name="quoteright" horiz-adv-x="272" d="M151 676Q156 689 166 699T194 710H317Q331 710 333 701T330 683L211 486Q205 476 196 467T169 458H94Q86 458 81 465T79 481L151 676Z" />
<glyph unicode="&#x201a;" glyph-name="quotesinglbase" horiz-adv-x="286" d="M34 143Q39 156 49 166T77 177H200Q214 177 216 168T213 150L94 -47Q88 -57 79 -66T52 -75H-23Q-31 -75 -36 -68T-38 -52L34 143Z" />
<glyph unicode="&#x201c;" glyph-name="quotedblleft" horiz-adv-x="506" d="M313 458Q300 458 298 467T300 485L419 682Q425 693 435 701T461 710H537Q545 710 549 703T551 687L479 492Q474 480 464 469T436 458H313ZM85 458Q72 458 70 467T72 485L191 682Q197
693 207 701T233 710H309Q317 710 322 703T323 687L251 492Q247 480 236 469T208 458H85Z" />
<glyph unicode="&#x201d;" glyph-name="quotedblright" horiz-adv-x="499" d="M151 676Q156 689 166 699T194 710H317Q331 710 333 701T330 683L211 486Q205 476 196 467T169 458H94Q86 458 81 465T79 481L151 676ZM378 676Q383 689 393 699T421 710H544Q557 710
559 701T557 683L438 486Q432 476 423 467T396 458H320Q312 458 307 465T306 481L378 676Z" />
<glyph unicode="&#x201e;" glyph-name="quotedblbase" horiz-adv-x="512" d="M34 143Q39 156 49 166T77 177H200Q214 177 216 168T213 150L94 -47Q88 -57 79 -66T52 -75H-23Q-31 -75 -36 -68T-38 -52L34 143ZM261 143Q266 156 276 166T304 177H427Q440 177 442
168T440 150L321 -47Q315 -57 305 -66T279 -75H203Q195 -75 190 -68T189 -52L261 143Z" />
<glyph unicode="&#x2022;" glyph-name="bullet" horiz-adv-x="383" d="M74 331Q81 366 104 394T159 439T226 456Q261 456 285 439T320 394T324 331Q317 297 294 269T239 223T172 206Q138 206 113 223T78 268T74 331Z" />
<glyph unicode="&#x2039;" glyph-name="guilsinglleft" horiz-adv-x="347" d="M235 67Q232 67 228 68T219 75L55 275Q50 282 48 289T47 305L57 353Q59 361 64 368T78 383L327 583Q333 588 338 589T347 591Q356 591 360 585T363 570L343 475Q340 460 335 452T317
434L188 329L272 224Q280 214 282 206T281 183L261 88Q259 79 252 73T235 67Z" />
<glyph unicode="&#x203a;" glyph-name="guilsinglright" horiz-adv-x="347" d="M42 67Q33 67 29 73T26 88L46 183Q49 198 55 206T72 224L201 329L117 434Q110 444 107 452T108 475L128 570Q130 579 137 585T154 591Q157 591 161 590T170 583L333 383Q339 376 341
369T342 353L332 305Q330 297 325 290T310 275L61 75Q56 70 51 69T42 67Z" />
</font>
</defs>
</svg>
