<?xml version="1.0" standalone="no"?>
<!DOCTYPE svg PUBLIC "-//W3C//DTD SVG 1.1//EN" "http://www.w3.org/Graphics/SVG/1.1/DTD/svg11.dtd">
<svg xmlns="http://www.w3.org/2000/svg">
<defs >
<font id="Merriweather" horiz-adv-x="637" ><font-face
    font-family="Merriweather Black"
    units-per-em="1000"
    panose-1="0 0 10 0 0 0 0 0 0 0"
    ascent="984"
    descent="-273"
    alphabetic="0" />
<glyph unicode=" " glyph-name="space" horiz-adv-x="237" />
<glyph unicode="!" glyph-name="exclam" horiz-adv-x="350" d="M342 868L216 257H118L180 868H342ZM58 111T86 138T150 165Q183 165 202 142T221 87Q221 41 192 16T124 -10Q96 -10 77 12T58 68Q58 111 86 138Z" />
<glyph unicode="&quot;" glyph-name="quotedbl" horiz-adv-x="540" d="M274 824L193 472H96L136 824H274ZM527 824L446 472H349L389 824H527Z" />
<glyph unicode="#" glyph-name="numbersign" horiz-adv-x="686" d="M54 178L65 265H161L184 416H88L96 500H195L221 663H330L305 500H429L457 663H565L539 500H638L630 416H527L503 265H601L590 178H488L460 0H354L378 178H253L223 0H116L144 178H54ZM417 416H292L270
265H395L417 416Z" />
<glyph unicode="$" glyph-name="dollar" horiz-adv-x="588" d="M203 -9Q141 -4 88 10T19 37L50 191H147L152 84Q195 51 255 51Q323 51 353 79T383 155Q383 199 354 231T253 311Q177 360 134 411T91 533Q91 629 159 686T339 751L353 844H441L426 750Q516 744 565
716L539 570H447L433 666Q396 692 347 692Q297 692 271 667T244 601Q244 551 275 516T384 432Q458 387 499 338T540 217Q540 126 478 63T292 -10L275 -112H187L203 -9Z" />
<glyph unicode="%" glyph-name="percent" horiz-adv-x="933" d="M748 747L285 0H180L643 747H748ZM159 359T119 403T79 515Q79 567 106 616T182 697T290 728Q364 728 404 687T444 579Q444 525 417 474T340 391T229 359Q159 359 119 403ZM270 414T289 440T318 504T328
575Q328 673 276 673Q249 673 230 648T200 586T190 516Q190 414 243 414Q270 414 289 440ZM497 236T524 285T600 365T708 396Q783 396 822 355T862 248Q862 194 835 143T758 60T647 28Q577 28 537 72T497 184Q497 236 524 285ZM608 83T661 83Q688 83 707 109T737
173T747 244Q747 291 734 316T694 342Q667 342 648 317T618 256T608 185Q608 83 661 83Z" />
<glyph unicode="&amp;" glyph-name="ampersand" horiz-adv-x="881" d="M243 -18T177 4T73 68T35 166Q35 248 85 295T225 379Q186 470 186 535Q186 604 220 654T314 731T450 758Q553 758 606 716T659 609Q659 550 625 509T542 441T410 380Q494 228 586 144Q621
189 621 251Q621 261 620 273T618 292H607Q583 292 562 287T531 273V382Q540 391 559 398T607 406Q624 406 652 402Q684 398 709 398Q750 398 766 413T789 473H843Q854 437 854 403Q854 351 832 317T767 283H751V271Q751 166 656 89Q668 82 684 78Q715 68 748 68Q760
68 765 69V9Q739 -2 709 -6T626 -10Q559 -10 510 12Q420 -18 328 -18Q243 -18 177 4ZM438 470T471 507T504 602Q504 641 491 670T446 699Q393 699 371 664T349 566Q349 500 378 440Q438 470 471 507ZM400 51T442 60Q391 107 356 158T266 303Q201 253 201 187Q201
123 242 87T352 51Q400 51 442 60Z" />
<glyph unicode="&apos;" glyph-name="quotesingle" horiz-adv-x="288" d="M274 824L193 472H96L136 824H274Z" />
<glyph unicode="(" glyph-name="parenleft" horiz-adv-x="432" d="M86 301T93 354Q110 485 172 595T302 775T406 864L467 821Q439 803 390 744T295 589T231 377Q222 317 222 250Q222 152 244 72T295 -60T347 -129L281 -170H272Q244 -151 201 -98T122 44T86 247Q86
301 93 354Z" />
<glyph unicode=")" glyph-name="parenright" horiz-adv-x="436" d="M344 396T337 343Q320 212 258 102T128 -78T24 -167L-37 -124Q-9 -106 40 -47T135 108T199 320Q208 380 208 447Q208 545 186 625T135 757T83 826L149 867H158Q186 848 229 795T308 653T344 450Q344
396 337 343Z" />
<glyph unicode="*" glyph-name="asterisk" horiz-adv-x="667" d="M273 568L307 579L278 590L107 665L182 773L322 656L345 634L342 670L339 860L472 858L428 667L419 638L611 774L663 664L479 590L446 578L474 568L646 493L571 383L429 500L406 524L409 488L413
298H279L323 491L332 520L307 499L141 383L90 494L273 568Z" />
<glyph unicode="+" glyph-name="plus" horiz-adv-x="648" d="M286 333L217 330H121L130 424H235L303 420L310 500L323 613H428L415 500L401 420L458 424H568L559 330H439L385 333Q385 319 383 293L380 252L366 134H260L273 252L286 333Z" />
<glyph unicode="," glyph-name="comma" horiz-adv-x="271" d="M112 144Q166 130 190 90T215 -2Q215 -82 163 -149T23 -254L-7 -211L-6 -201Q34 -183 63 -137T93 -43Q93 -10 79 14T43 39L46 69L112 144Z" />
<glyph unicode="-" glyph-name="hyphen" horiz-adv-x="638" d="M544 368L527 274H105L122 368H544Z" />
<glyph unicode="." glyph-name="period" horiz-adv-x="279" d="M27 115T54 143T118 171Q154 171 175 147T196 90Q196 41 167 15T99 -11Q70 -11 49 12T27 70Q27 115 54 143Z" />
<glyph unicode="/" glyph-name="slash" horiz-adv-x="417" d="M361 780H474L53 -177H-60L361 780Z" />
<glyph unicode="0" glyph-name="zero" horiz-adv-x="624" d="M156 -8T98 59T39 229Q39 326 79 403T190 523T352 567Q472 567 530 500T589 330Q589 233 549 156T438 36T276 -8Q156 -8 98 59ZM362 46T391 133T421 333Q421 514 338 514Q263 514 234 427T204 228Q204
146 223 96T287 46Q362 46 391 133Z" />
<glyph unicode="1" glyph-name="one" horiz-adv-x="454" d="M139 65L190 434Q114 416 72 409L63 469Q112 480 180 510T289 567L368 549L298 65L407 51L402 0H31L36 51L139 65Z" />
<glyph unicode="2" glyph-name="two" horiz-adv-x="609" d="M169 132T261 233T354 437Q354 484 331 510T268 536Q219 536 167 513T94 467L57 529Q73 547 109 570T200 612T315 630Q391 630 437 601T502 531T522 448Q522 382 469 310T334 175T171 73L446 94L501
192L572 169L524 0H35L19 51Q169 132 261 233Z" />
<glyph unicode="3" glyph-name="three" horiz-adv-x="539" d="M64 -160T-10 -144L10 -72Q40 -80 73 -80Q154 -80 209 -55T290 11T316 98Q316 125 304 151T263 196T193 214Q179 214 172 213L118 198L128 268Q185 280 227 308T292 373T315 449Q315 481 298 506T244
531Q153 531 83 472L55 530Q73 550 111 573T200 612T302 628Q382 628 428 588T474 478Q474 415 421 355T296 264Q304 265 320 265Q369 265 405 243T459 184T478 105Q478 28 427 -32T290 -126T104 -160Q64 -160 -10 -144Z" />
<glyph unicode="4" glyph-name="four" horiz-adv-x="617" d="M310 0H14L-19 41Q29 100 94 214T219 450T310 651H328L480 585Q426 493 329 341T185 133L164 109Q122 61 122 61L322 78L343 241L495 278L474 89L569 97L556 0H457L435 -183H286L310 0Z" />
<glyph unicode="5" glyph-name="five" horiz-adv-x="552" d="M90 -85T114 -85Q192 -85 244 -57T320 14T345 105Q345 162 314 200T225 238Q170 238 112 209L82 232L160 619H461L473 633H549L522 516L275 517L221 293Q236 304 272 314T338 324Q400 324 440 298T499
229T518 139Q518 51 470 -16T337 -121T149 -159Q128 -159 95 -155T50 -147L61 -77Q90 -85 114 -85Z" />
<glyph unicode="6" glyph-name="six" horiz-adv-x="591" d="M217 -10T163 23T77 114T46 244Q46 365 102 474T258 661T479 767L505 703Q444 684 386 639T285 536T227 425Q248 452 283 469T367 486Q422 486 463 462T527 396T550 299Q550 217 515 146T420 33T285
-10Q217 -10 163 23ZM322 56T347 88T385 169T397 269Q397 336 373 366T314 397Q279 397 254 378T211 333Q198 261 198 196Q198 129 217 93T284 56Q322 56 347 88Z" />
<glyph unicode="7" glyph-name="seven" horiz-adv-x="535" d="M184 472L138 354H34L71 560H533L550 535L265 -183L118 -137L420 472H184Z" />
<glyph unicode="8" glyph-name="eight" horiz-adv-x="612" d="M43 234T94 291T222 379Q178 418 152 459T125 552Q125 607 156 653T244 726T375 753Q484 753 533 718T583 613Q583 555 538 499T423 407Q557 310 557 207Q557 144 516 95T410 18T274 -10Q175 -10 109
33T43 170Q43 234 94 291ZM459 512T459 607Q459 653 435 675T374 698Q324 698 295 669T265 588Q265 552 289 521T362 456Q459 512 459 607ZM184 122T211 87T292 51Q340 51 374 85T409 176Q409 205 398 227T367 267T311 313L286 332Q185 269 184 169Q184 122 211
87Z" />
<glyph unicode="9" glyph-name="nine" horiz-adv-x="609" d="M393 568T447 539T531 454T562 319Q562 198 505 88T347 -101T125 -209L99 -145Q162 -126 221 -83T324 17T382 133Q360 106 325 89T242 72Q187 72 146 101T82 181T59 297Q59 369 93 431T188 530T323
568Q393 568 447 539ZM269 502T241 449T212 327Q212 239 236 200T295 161Q354 161 398 225Q411 284 411 338Q411 418 392 460T325 502Q269 502 241 449Z" />
<glyph unicode=":" glyph-name="colon" horiz-adv-x="277" d="M83 510T110 538T174 566Q210 566 231 542T252 485Q252 436 223 410T155 384Q126 384 105 407T83 465Q83 510 110 538ZM280 115T307 143T371 171Q407 171 428 147T449 90Q449 41 420 15T352 -11Q323
-11 302 12T280 70Q280 115 307 143Z" />
<glyph unicode=";" glyph-name="semicolon" horiz-adv-x="271" d="M112 144Q166 130 190 90T215 -2Q215 -82 163 -149T23 -254L-7 -211L-6 -201Q34 -183 63 -137T93 -43Q93 -10 79 14T43 39L46 69L112 144ZM79 510T106 538T170 566Q206 566 227 542T248 485Q248
436 219 410T151 384Q122 384 101 407T79 465Q79 510 106 538Z" />
<glyph unicode="&lt;" glyph-name="less" horiz-adv-x="668" d="M596 646L580 521L245 365L542 203L530 86L95 335L103 397L596 646Z" />
<glyph unicode="=" glyph-name="equal" horiz-adv-x="519" d="M482 504L471 409H73L84 504H482ZM446 247L435 152H37L48 247H446Z" />
<glyph unicode="&gt;" glyph-name="greater" horiz-adv-x="668" d="M121 88L137 213L472 369L175 531L187 648L622 399L614 337L121 88Z" />
<glyph unicode="?" glyph-name="question" horiz-adv-x="465" d="M123 258T114 291T105 351Q105 385 123 410T166 453T244 502Q285 523 316 544T362 582Q367 592 369 610T372 645Q372 705 329 740T209 776Q179 776 147 771T94 756L117 854Q131 865 173 880T263
895Q391 895 443 834T496 685Q496 603 454 544Q422 501 379 469T288 416Q260 403 241 385T219 342Q218 333 218 316Q218 281 224 263L141 239L134 240Q123 258 114 291ZM120 111T148 138T212 165Q246 165 265 142T284 87Q284 41 255 16T186 -10Q158 -10 139 12T120
68Q120 111 148 138Z" />
<glyph unicode="@" glyph-name="at" horiz-adv-x="961" d="M28 338T113 481T330 707T597 789Q696 789 772 745T891 623T933 446Q933 312 891 209T779 51T632 -5Q571 -5 571 95Q571 113 576 152T589 223Q551 134 499 69T397 3Q355 3 319 26T261 98T238 215Q238
296 273 372T374 496T532 545Q554 545 583 537T632 514L731 538Q717 482 701 383T678 210Q675 176 675 156L676 116Q676 99 680 91T689 83Q728 83 762 130T817 252T838 402Q838 499 798 568T693 672T554 707Q435 707 339 631T189 436T135 199Q135 86 183 2T308
-126T472 -171Q513 -171 565 -162T641 -141L662 -193Q628 -219 573 -234T455 -250Q342 -250 244 -200T87 -56T28 165Q28 338 113 481ZM359 179T374 144T417 109Q443 109 484 168T561 305T603 431Q595 446 569 458T522 471Q470 471 433 434T378 339T359 218Q359
179 374 144Z" />
<glyph unicode="A" glyph-name="A" horiz-adv-x="660" d="M481 745L602 66L680 51L677 0H344L346 51L423 65L403 204H164L105 65L197 51L193 0H-78L-74 51L-6 65L314 745H481ZM195 277H393L354 547L350 640L195 277Z" />
<glyph unicode="B" glyph-name="B" horiz-adv-x="684" d="M273 743T323 747Q385 751 421 751Q556 751 605 704T654 581Q654 506 609 460T472 392Q526 393 566 373T628 319T650 244Q650 110 562 50T294 -10Q277 -10 251 -8T214 -5Q167 0 138 0H-5L-1 51L67 65L149
678L78 689L84 743H247Q273 743 323 747ZM288 417T297 417T314 418H338Q406 418 450 455T495 569Q495 628 467 658T383 689Q337 689 311 683L275 418Q288 417 297 417ZM246 58T272 55T315 51Q474 51 474 214Q474 285 441 318T329 351Q290 351 266 349L227 63Q246
58 272 55Z" />
<glyph unicode="C" glyph-name="C" horiz-adv-x="634" d="M461 689T435 689Q361 689 311 634T238 493T217 321Q221 195 253 133T356 70Q425 70 463 106Q482 130 502 205H598L577 65Q537 34 481 13T330 -8Q175 -8 103 81T29 311Q29 448 82 547T233 699T461 752Q519
752 551 748T617 734L637 729L653 725L623 529H502L483 681Q461 689 435 689Z" />
<glyph unicode="D" glyph-name="D" horiz-adv-x="735" d="M264 743T316 747Q382 751 414 751Q579 751 654 670T729 450Q729 238 622 115T293 -8Q274 -8 256 -4Q212 0 162 0H-16L-10 51L67 65L149 678L79 689L84 743H238Q264 743 316 747ZM250 61T270 58T304 54Q388
54 443 111T523 254T548 433Q548 570 512 629T395 689Q368 689 346 686T316 678L235 66Q250 61 270 58Z" />
<glyph unicode="E" glyph-name="E" horiz-adv-x="636" d="M625 743L608 564H508L488 673L317 685L283 429L507 451L489 339L273 354L239 73L467 90L520 227L622 220L587 0H-17L-10 51L68 65L148 678L77 689L83 743H625Z" />
<glyph unicode="F" glyph-name="F" horiz-adv-x="597" d="M634 743L615 557H508L495 673L318 684L282 419L517 432L501 324L272 342L237 65L371 51L367 0H-5L0 51L68 65L148 678L77 689L84 743H634Z" />
<glyph unicode="G" glyph-name="G" horiz-adv-x="690" d="M562 36T522 25Q460 9 415 1T311 -8Q214 -8 151 36T59 155T30 320Q30 451 77 548T215 698T438 752Q505 752 546 746T629 729L650 724L679 718L647 557H532L528 668Q489 689 440 689Q208 689 208 321Q209
207 243 136T343 65Q413 65 453 80L479 288L379 296L388 368H658L614 41Q562 36 522 25Z" />
<glyph unicode="H" glyph-name="H" horiz-adv-x="807" d="M413 743L407 689L320 678L285 412H556L591 678L506 689L512 743H841L835 689L760 678L680 65L756 51L750 0H411L418 51L510 65L547 344H275L239 65L323 51L319 0H-3L1 51L70 65L151 678L80 689L87 743H413Z" />
<glyph unicode="I" glyph-name="I" horiz-adv-x="374" d="M411 743L405 689L321 678L241 65L326 51L323 0H-8L-1 51L72 65L152 678L81 689L86 743H411Z" />
<glyph unicode="J" glyph-name="J" horiz-adv-x="360" d="M319 655Q285 376 265 222T233 37Q204 -47 122 -100T-66 -168L-92 -117Q-17 -94 19 -53T65 42Q112 287 154 677L83 689L90 743H397L393 689L322 678L319 655Z" />
<glyph unicode="K" glyph-name="K" horiz-adv-x="724" d="M483 422T537 307Q567 244 576 226Q618 143 638 109T674 66L731 52L725 0H515Q500 2 491 10T472 38T445 102Q432 133 413 185Q376 289 352 335L260 242L237 65L321 51L317 0H-10L-3 51L68 65L148 678L78
689L84 743H410L404 689L317 678L274 352L580 678L514 690L519 743H762L756 689L695 678L466 449Q483 422 537 307Z" />
<glyph unicode="L" glyph-name="L" horiz-adv-x="619" d="M412 743L406 689L317 678L236 62L414 72L516 291L603 280L552 0H-5L1 51L68 65L148 678L77 689L84 743H412Z" />
<glyph unicode="M" glyph-name="M" horiz-adv-x="985" d="M562 398T618 536L701 743H995L988 689L902 678L883 65L971 51L967 0H622L626 52L718 65L746 482L756 678L686 506L471 -1L389 -9L323 494L295 678L253 489L151 65L261 51L256 0H-42L-36 51L43 65L202
678L107 689L115 743H447L498 329L508 245L535 329Q562 398 618 536Z" />
<glyph unicode="N" glyph-name="N" horiz-adv-x="758" d="M352 743L535 259L573 147L640 678L556 689L561 743H805L800 689L740 678L636 0H464L272 500L234 623L172 65L265 51L260 0H-8L-4 51L68 65L158 678L76 689L84 743H352Z" />
<glyph unicode="O" glyph-name="O" horiz-adv-x="713" d="M559 753T628 664T697 436Q697 318 657 217T530 53T313 -10Q169 -10 100 77T31 311Q31 429 73 529T203 691T415 753Q559 753 628 664ZM343 692T301 639T236 500T213 317Q214 199 238 125T327 50Q388 50
430 99T493 233T514 425Q514 556 488 624T401 692Q343 692 301 639Z" />
<glyph unicode="P" glyph-name="P" horiz-adv-x="653" d="M267 743T323 747Q373 751 396 751Q543 751 605 699T668 540Q668 449 626 384T505 285T320 251Q282 251 262 254L240 65L373 51L370 0H-5L0 51L67 65L149 678L77 689L84 743H236Q267 743 323 747ZM287
315T304 315T325 315Q403 316 448 380T495 549Q495 621 462 655T368 689Q343 689 320 685L270 319Q287 315 304 315Z" />
<glyph unicode="Q" glyph-name="Q" horiz-adv-x="714" d="M654 -179T606 -196T492 -213Q403 -213 357 -177T310 -71Q310 -45 318 -10Q174 -10 103 74T31 311Q31 429 73 529T203 691T415 752Q560 752 628 663T697 436Q697 332 665 240T566 83T397 -2Q396 -56 432
-72T539 -89Q566 -89 608 -84T679 -69L680 -159Q654 -179 606 -196ZM344 692T301 639T236 500T213 316Q214 199 238 124T327 49Q388 49 430 98T493 233T514 425Q514 556 488 624T402 692Q344 692 301 639Z" />
<glyph unicode="R" glyph-name="R" horiz-adv-x="706" d="M264 743T310 747Q364 751 412 751Q556 751 614 705T673 565Q673 486 629 428T507 343Q524 324 541 284T582 180L592 158Q613 113 624 94T652 63T696 52L691 0H492Q483 0 474 21T447 93L430 140Q373 302
357 323H267L235 65L325 51L322 0H-5L-1 51L68 65L148 678L78 689L84 743H235Q264 743 310 747ZM293 389T314 389T350 389Q421 389 460 437T496 575Q494 632 462 660T373 689Q340 689 316 685L276 390Q293 389 314 389Z" />
<glyph unicode="S" glyph-name="S" horiz-adv-x="564" d="M404 680T387 685T345 691Q293 691 263 667T233 603Q233 553 264 517T372 433Q442 388 483 336T524 216Q525 154 493 103T397 20T239 -11Q164 -11 96 5T8 37L36 191H136L141 82Q177 51 235 51Q304 51 335
78T367 152Q367 197 339 231T240 310Q166 357 124 411T82 537Q82 639 158 695T357 752Q490 752 552 716L526 569H434L420 667Q404 680 387 685Z" />
<glyph unicode="T" glyph-name="T" horiz-adv-x="704" d="M748 743L707 460H620L612 673L493 685L411 65L548 52L543 0H113L120 52L241 65L324 685L205 673L125 460H35L83 743H748Z" />
<glyph unicode="U" glyph-name="U" horiz-adv-x="714" d="M630 137T554 64T340 -10Q205 -10 141 50T77 209Q77 261 80 290L130 678L60 689L66 743H400L396 690L299 678L250 304Q242 226 242 206Q242 135 275 93T370 50Q456 50 499 113T560 306L610 678L538 690L543
743H769L762 690L699 678L651 306Q630 137 554 64Z" />
<glyph unicode="V" glyph-name="V" horiz-adv-x="607" d="M318 743L313 689L233 678L286 248L295 137L339 248L536 678L449 689L454 743H715L706 689L632 678L312 -5H168L57 678L-11 690L-4 743H318Z" />
<glyph unicode="W" glyph-name="W" horiz-adv-x="952" d="M302 743L298 689L231 676L277 248L289 145L328 247L477 607L470 677L393 690L398 743H715L711 689L637 677L679 248L682 145L724 247L908 677L798 689L803 743H1090L1085 690L1008 678L689 -5H540L496
453L306 -5H158L57 677L-10 690L-3 743H302Z" />
<glyph unicode="X" glyph-name="X" horiz-adv-x="673" d="M386 743L382 690L310 678L392 460L540 678L474 689L477 743H730L726 689L659 678L428 388L590 65L652 51L647 0H312L316 51L388 65L301 286L149 65L223 51L218 0H-37L-31 51L24 65L267 362L119 677L60
689L65 743H386Z" />
<glyph unicode="Y" glyph-name="Y" horiz-adv-x="633" d="M357 743L349 689L265 678L345 442L368 370L399 429L546 678L466 689L471 743H729L722 689L658 678L407 295L377 65L496 51L491 0H90L96 51L209 65L237 295L74 678L11 689L16 743H357Z" />
<glyph unicode="Z" glyph-name="Z" horiz-adv-x="599" d="M621 743L636 701L220 116L165 66L405 77L500 234L584 211L535 0H-9L-26 43L395 632L455 682L236 673L167 541L83 552L114 743H621Z" />
<glyph unicode="[" glyph-name="bracketleft" horiz-adv-x="427" d="M124 -112T90 -96T55 -43Q55 -38 55 -22T57 10Q92 261 158 742Q174 864 308 864Q346 864 390 853T436 841L426 782H292L182 -27L317 -28L310 -89Q270 -101 241 -106T177 -112Q124 -112 90 -96Z" />
<glyph unicode="\" glyph-name="backslash" horiz-adv-x="417" d="M15 784H124L406 -177H296L15 784Z" />
<glyph unicode="]" glyph-name="bracketright" horiz-adv-x="427" d="M313 872T347 856T382 803Q382 798 382 782T380 750Q345 499 279 18Q263 -104 129 -104Q91 -104 47 -93T1 -81L11 -22H145L255 787L120 788L127 849Q167 861 196 866T260 872Q313 872 347 856Z" />
<glyph unicode="^" glyph-name="asciicircum" horiz-adv-x="666" d="M381 748L575 202H452L332 549L213 202H90L282 748H381Z" />
<glyph unicode="_" glyph-name="underscore" horiz-adv-x="652" d="M618 -165H-55L-45 -91H627L618 -165Z" />
<glyph unicode="`" glyph-name="grave" horiz-adv-x="264" d="M168 615T128 644T52 706T1 766L99 851L240 640L189 606Q168 615 128 644Z" />
<glyph unicode="a" glyph-name="a" horiz-adv-x="592" d="M490 105T490 97Q490 73 510 73Q527 73 554 95L568 61Q554 39 518 15T433 -10Q397 -10 375 5T351 48V54Q289 -10 202 -10Q115 -10 72 48T29 196Q29 293 67 378T182 516T364 568Q390 568 422 562T479 547L554
568L491 110Q490 105 490 97ZM365 501T353 501Q297 501 262 456T211 343T196 202Q196 142 215 108T269 74Q301 74 333 104L387 497Q365 501 353 501Z" />
<glyph unicode="b" glyph-name="b" horiz-adv-x="587" d="M311 568T386 568Q470 568 512 514T554 356Q554 254 514 171T398 39T222 -10Q169 -10 104 11L33 -10L125 725L74 746L84 787L259 806L285 792L249 516Q311 568 386 568ZM210 57T235 57Q314 57 352 144T391
356Q391 411 373 447T319 483Q275 483 239 438L190 63Q210 57 235 57Z" />
<glyph unicode="c" glyph-name="c" horiz-adv-x="468" d="M365 438T344 465T309 492Q282 492 255 459T211 368T193 239Q193 154 213 118T280 82Q323 82 352 98T404 144L435 94Q410 55 353 23T218 -10Q129 -10 79 51T29 227Q29 312 64 390T171 518T343 568Q376
568 410 563T468 549L428 394L393 395Q365 438 344 465Z" />
<glyph unicode="d" glyph-name="d" horiz-adv-x="612" d="M503 106T503 97Q503 73 521 73Q537 73 566 95L580 61Q557 35 526 13T444 -10Q405 -10 385 8T360 63L359 72Q335 38 294 14T197 -10Q111 -10 70 47T29 196Q29 294 66 379T177 516T360 568Q383 568 411
563L434 724L358 745L367 785L576 806L602 792L504 111Q503 106 503 97ZM373 501T348 501Q266 501 230 411T194 202Q194 142 212 108T264 74Q288 74 309 88T346 126L400 492Q373 501 348 501Z" />
<glyph unicode="e" glyph-name="e" horiz-adv-x="527" d="M445 61T386 24T244 -14Q170 -14 122 17T52 100T30 210Q30 312 71 394T185 522T346 569Q428 569 467 533T506 440Q506 367 458 319T341 247T203 222Q202 148 226 110T295 72Q346 72 380 95T441 153L472
104Q445 61 386 24ZM259 501T234 434T203 281Q234 283 269 300T328 351T352 428Q352 501 311 501Q259 501 234 434Z" />
<glyph unicode="f" glyph-name="f" horiz-adv-x="336" d="M149 695T208 755T362 815Q417 815 448 803L418 717Q387 740 353 740Q328 740 316 728T298 696T287 636L275 555H376L362 472H264L216 73Q206 -12 176 -85T93 -205T-31 -251Q-76 -251 -123 -240L-95 -148Q-39
-172 -19 -172Q6 -172 21 -149T44 -77L110 472H49L59 522L125 553L133 600Q149 695 208 755Z" />
<glyph unicode="g" glyph-name="g" horiz-adv-x="594" d="M466 -154T381 -203T180 -253Q147 -253 106 -246T50 -231L75 -127Q82 -133 104 -144T156 -165T212 -175Q265 -175 289 -154T321 -71L333 37Q275 -10 202 -10Q115 -10 72 48T29 196Q29 293 67 378T182 516T364
568Q393 568 426 561T484 545L563 568L481 -38Q466 -154 381 -203ZM375 501T353 501Q297 501 262 456T211 343T196 202Q196 142 215 108T269 74Q308 74 342 112L398 494Q375 501 353 501Z" />
<glyph unicode="h" glyph-name="h" horiz-adv-x="632" d="M284 502T332 535T438 568Q568 568 568 420Q568 382 543 247L536 206Q522 128 522 100Q522 73 541 73Q549 73 558 77T585 95L599 61Q582 38 546 14T455 -10Q396 -10 376 12T356 72Q356 99 373 184L379
216Q401 341 401 397Q401 440 392 456T362 472Q332 472 297 435T237 345L195 0H36L123 724L61 745L69 785L267 806L292 792L250 446Q284 502 332 535Z" />
<glyph unicode="i" glyph-name="i" horiz-adv-x="327" d="M217 105T217 97Q217 73 235 73Q243 73 252 78T280 95L293 61Q276 38 241 14T151 -10Q105 -10 80 7T54 53Q54 59 55 63L81 260L109 469L53 499L61 542L254 568L280 556L218 110Q217 105 217 97ZM187 654T164
678T140 732Q140 773 168 801T242 830Q277 830 298 807T319 754Q319 710 293 682T217 654Q187 654 164 678Z" />
<glyph unicode="j" glyph-name="j" horiz-adv-x="319" d="M205 -80T170 -138T82 -227T-30 -258Q-61 -258 -86 -254T-120 -240L-100 -177Q-91 -180 -79 -181T-56 -183Q-17 -183 6 -155T39 -82T58 32L109 479L29 503L40 543L257 568L282 556L215 0Q205 -80 170 -138ZM169
654T146 678T122 732Q122 773 150 801T224 830Q259 830 280 807T301 754Q301 710 275 682T199 654Q169 654 146 678Z" />
<glyph unicode="k" glyph-name="k" horiz-adv-x="564" d="M296 792L191 0H32L127 724L64 745L73 785L269 806L296 792ZM280 324T310 347T380 422Q406 457 406 502Q406 538 430 553T485 568Q515 568 531 550T548 505Q548 463 520 427Q475 368 369 318L461 133Q473
111 487 100T513 88Q523 88 540 94T570 110L586 76Q564 48 519 20T420 -9Q380 -9 358 6T324 49L231 298Q280 324 310 347Z" />
<glyph unicode="l" glyph-name="l" horiz-adv-x="310" d="M205 106T205 98Q205 73 224 73Q232 73 241 77T269 95L282 61Q230 -10 146 -10Q103 -10 74 6T43 56Q43 62 47 94L131 724L66 745L76 785L272 806L297 792L206 110Q205 106 205 98Z" />
<glyph unicode="m" glyph-name="m" horiz-adv-x="956" d="M291 505T336 536T436 568Q556 568 568 447Q601 505 650 536T762 568Q822 568 856 533T891 420Q891 391 867 247Q865 235 863 227Q846 131 846 100Q846 84 851 79T865 73Q873 73 882 77T909 95L923 61Q906
38 870 14T777 -10Q719 -10 700 13T680 72Q680 103 703 216Q725 341 725 397Q725 441 716 456T685 472Q656 472 624 444T568 370Q565 316 556 247L527 0H366L394 216Q409 325 409 392Q409 441 399 456T363 472Q337 472 303 440T246 362L196 0H41L105 471L53 499L61
542L240 568L266 556L258 452Q291 505 336 536Z" />
<glyph unicode="n" glyph-name="n" horiz-adv-x="636" d="M292 506T339 537T442 568Q572 568 572 420Q572 391 548 247Q546 232 540 200Q526 126 526 100Q526 73 545 73Q553 73 562 77T589 95L603 61Q586 38 550 14T458 -10Q400 -10 380 13T360 72Q360 99 377
184L383 216Q405 341 405 397Q405 440 396 456T366 472Q337 472 303 438T245 352L197 0H42L105 471L53 499L61 542L241 568L266 556L258 453Q292 506 339 537Z" />
<glyph unicode="o" glyph-name="o" horiz-adv-x="603" d="M456 569T512 509T569 331Q569 236 530 157T420 32T255 -14Q145 -14 89 47T33 226Q33 321 72 399T182 523T346 569Q456 569 512 509ZM285 501T257 457T217 345T206 210Q209 123 225 86T278 49Q337 49 365
131T394 323Q394 422 379 461T328 501Q285 501 257 457Z" />
<glyph unicode="p" glyph-name="p" horiz-adv-x="596" d="M319 568T396 568Q480 568 523 513T566 356Q566 255 525 171T409 39T237 -10Q215 -10 187 -5L152 -254H0L98 471L45 500L53 542L239 568L264 556L259 514Q319 568 396 568ZM219 57T250 57Q326 57 362 144T399
356Q399 411 381 447T328 483Q285 483 249 434L197 65Q219 57 250 57Z" />
<glyph unicode="q" glyph-name="q" horiz-adv-x="598" d="M467 -143Q467 -154 472 -162T487 -170Q503 -170 531 -147L545 -182Q528 -205 492 -229T399 -253Q347 -253 323 -229T302 -170L333 42Q275 -10 198 -10Q112 -10 71 47T30 196Q30 294 67 379T178 516T360
568Q390 568 424 561T483 544L561 568L468 -135L467 -143ZM375 501T349 501Q267 501 231 411T194 202Q194 141 212 108T265 74Q289 74 309 88T345 124L399 492Q375 501 349 501Z" />
<glyph unicode="r" glyph-name="r" horiz-adv-x="416" d="M259 484T302 526T401 568Q423 568 435 558L402 387Q398 392 383 398T347 404Q316 404 290 398T249 379L197 0H43L106 471L54 499L62 542L222 568L248 551L243 459L241 423Q259 484 302 526Z" />
<glyph unicode="s" glyph-name="s" horiz-adv-x="428" d="M367 468T342 483T282 499Q249 499 227 484T203 440Q203 412 222 390T290 331Q340 295 365 260T390 169Q390 111 359 71T274 10T157 -10Q112 -10 64 1T1 24L24 121Q46 100 81 82T154 64Q185 64 209 80T233
128Q233 156 211 180T143 236Q101 265 75 304T48 400Q48 449 76 487T156 546T276 568Q313 568 351 562T403 550L382 450Q367 468 342 483Z" />
<glyph unicode="t" glyph-name="t" horiz-adv-x="354" d="M217 179T216 172T214 160Q210 128 210 122Q210 82 247 82Q268 82 290 88T330 110L342 72Q313 40 264 15T145 -10Q104 -10 78 10T51 78Q51 97 64 192L103 477H44L56 530L116 553Q148 580 194 691H285L268
555H380L369 477H257L218 189Q217 179 216 172Z" />
<glyph unicode="u" glyph-name="u" horiz-adv-x="624" d="M232 253Q219 166 219 138Q219 102 230 87T266 71Q293 71 318 85T363 122L423 564H580L517 110Q513 73 537 73Q545 73 553 77T581 95L595 61Q588 49 570 33T523 3T459 -10Q420 -10 398 3T371 42Q370 45
370 53Q370 65 371 71L370 72Q338 36 298 13T200 -10Q147 -10 103 20T58 115Q58 156 74 262Q78 282 79 292L105 471L43 509L51 552L245 568L270 556L237 288L232 253Z" />
<glyph unicode="v" glyph-name="v" horiz-adv-x="529" d="M58 468T53 474T40 481Q27 481 15 474L0 511Q15 527 50 547T127 568Q170 568 192 551T219 501L265 221L280 115L306 155Q348 220 366 276T386 394Q386 414 379 444Q378 449 375 466T372 498Q372 528 392
548T448 568Q492 568 513 537T534 460Q534 391 477 293T318 69L260 -3L158 -10L121 173L61 454Q58 468 53 474Z" />
<glyph unicode="w" glyph-name="w" horiz-adv-x="861" d="M57 469T53 475T40 481Q32 481 27 479T15 474L0 511Q6 519 25 532T71 557T127 568Q170 568 192 551T219 501L258 212L270 109L313 246L408 564H551L602 195L610 113L634 153Q677 220 697 277T718 394Q718
410 710 444Q702 478 702 497Q702 527 723 547T781 568Q826 568 846 538T867 461Q867 415 831 340T743 190T652 69L591 -4L484 -9L455 173L440 307L433 381L413 307L373 199L292 -2L163 -10L124 173L61 454Q57 469 53 475Z" />
<glyph unicode="x" glyph-name="x" horiz-adv-x="503" d="M78 481T60 481Q46 481 38 479T21 471L2 512Q8 520 28 533T79 557T149 568Q188 568 213 555T245 517L282 372L397 564H543L325 290L398 144Q407 125 421 106T447 86Q458 86 468 89T495 105L517 65Q510
53 490 36T435 5T354 -10Q286 -10 268 42L226 198L107 0H-47L180 278L98 441Q78 481 60 481Z" />
<glyph unicode="y" glyph-name="y" horiz-adv-x="539" d="M57 469T53 475T40 481Q27 481 15 473L0 511Q13 527 49 547T127 568Q170 568 192 551T219 501L280 117L294 20L326 87Q404 255 404 363Q404 386 401 402T390 437Q383 454 380 467T377 501Q377 530 397
549T454 568Q495 568 518 538T542 467Q542 396 524 339T463 195Q426 113 286 -113Q238 -193 188 -223T73 -253Q44 -253 12 -246T-29 -231L8 -133Q19 -144 47 -153T99 -162Q146 -162 184 -133T264 -35H175L61 454Q57 469 53 475Z" />
<glyph unicode="z" glyph-name="z" horiz-adv-x="494" d="M193 434Q156 434 134 413T109 359H66Q61 384 61 424Q61 472 70 510T99 557Q118 568 148 568Q182 568 236 564T306 559Q408 551 435 551Q473 551 491 568L516 538L202 149L163 123H325Q365 123 388 145T414
203H456Q459 161 459 145Q459 95 451 54T422 -1Q409 -11 372 -11Q314 -11 202 -2Q176 -1 130 2T64 5Q51 5 36 1T13 -11L-18 19L298 406L344 433L193 434Z" />
<glyph unicode="{" glyph-name="braceleft" horiz-adv-x="510" d="M116 16T132 125T155 283Q155 299 130 315Q99 337 49 349L58 409Q118 424 152 441Q181 457 184 472L225 739Q236 806 275 833T376 861Q396 861 424 856T475 846T504 839Q503 831 499 810T495 782H360L313
474Q310 455 298 441T265 413Q248 404 226 394T193 379Q247 351 263 334Q288 309 284 281L237 -27H372Q370 -39 368 -58T364 -86Q322 -98 294 -103T229 -109Q177 -109 143 -93T109 -41Q116 16 132 125Z" />
<glyph unicode="|" glyph-name="bar" horiz-adv-x="417" d="M269 869V-91H167V869H269Z" />
<glyph unicode="}" glyph-name="braceright" horiz-adv-x="510" d="M396 739T380 630T357 472Q357 456 382 440Q413 418 463 406L454 346Q394 331 360 314Q331 298 328 283L287 16Q276 -51 237 -78T136 -106Q116 -106 88 -101T37 -91T8 -84Q9 -76 13 -55T17 -27H152L199
281Q202 300 214 314T247 342Q264 351 286 361T319 376Q265 404 249 421Q224 446 228 474L275 782H140Q142 794 144 813T148 841Q190 853 218 858T283 864Q335 864 369 848T403 796Q396 739 380 630Z" />
<glyph unicode="~" glyph-name="asciitilde" horiz-adv-x="555" d="M62 452T84 475T139 514T206 529Q238 529 260 519T312 487Q333 471 348 463T382 455Q414 455 436 468T477 507L526 450Q519 423 496 398T439 356T369 339Q335 339 311 351T259 385Q237 402 222
410T189 418Q161 418 136 407T94 370L54 428Q62 452 84 475Z" />
<glyph unicode="&#xa0;" glyph-name="uni00A0" horiz-adv-x="237" />
<glyph unicode="&#xa1;" glyph-name="exclamdown" horiz-adv-x="350" d="M307 545T279 518T215 491Q181 491 163 514T144 569Q144 615 173 640T241 666Q268 666 287 644T307 588Q307 545 279 518ZM23 -212L149 399H246L185 -212H23Z" />
<glyph unicode="&#xa2;" glyph-name="cent" horiz-adv-x="516" d="M197 -4Q130 11 94 69T57 225Q57 300 85 371T169 493T304 561L333 686H405L379 568Q452 566 498 549L457 394H412Q397 442 381 467T337 492Q310 492 283 459T239 367T222 236Q222 153 242 118T308
82Q352 82 381 98T432 144L463 94Q440 59 389 28T269 -9L245 -119H172L197 -4Z" />
<glyph unicode="&#xa3;" glyph-name="sterling" horiz-adv-x="728" d="M363 -10T314 4T204 44L173 57Q151 37 109 14T35 -10Q12 -10 -2 1T-16 32Q-16 50 0 67T44 95T107 106Q131 119 147 208L150 229Q166 321 172 354H80L89 441H187L197 497Q209 568 251 628T356
723T493 758Q552 758 586 749T648 720L593 610Q585 630 557 655T482 681Q443 681 412 652T364 540L347 441H484L476 354H332L319 280Q308 222 283 182T239 120T214 92Q313 74 381 74Q468 74 508 94T549 163Q549 191 533 215T498 253L597 339Q639 313 666 278T694
189Q694 97 625 44T430 -10Q363 -10 314 4Z" />
<glyph unicode="&#xa4;" glyph-name="currency" horiz-adv-x="754" d="M208 220Q174 275 174 337Q174 399 207 452L105 554L174 623L276 520Q330 551 389 551Q451 551 506 517L607 616L674 548L573 446Q604 394 604 337Q604 276 571 224L673 121L605 53L502 155Q449
123 389 123Q329 123 278 153L176 51L107 119L208 220ZM286 293T316 261T389 229Q432 229 461 261T491 337Q491 381 462 412T389 444Q346 444 316 413T286 337Q286 293 316 261Z" />
<glyph unicode="&#xa5;" glyph-name="yen" horiz-adv-x="736" d="M273 416L141 681L75 693L82 748H413L405 693L301 681L373 486L393 401L442 487L565 685L506 693L513 748H784L777 693L714 680L511 416H625L616 343H456L444 255H605L598 184H435L420 65L562 51L557
0H136L141 51L277 65L292 184H117L125 255H300L311 343H135L144 416H273Z" />
<glyph unicode="&#xa6;" glyph-name="brokenbar" horiz-adv-x="417" d="M269 869V447H167V869H269ZM269 331V-91H167V331H269Z" />
<glyph unicode="&#xa7;" glyph-name="section" horiz-adv-x="583" d="M151 116L163 15Q190 -21 253 -21Q300 -20 333 -3T366 61Q366 91 337 112T245 164Q182 194 144 218T77 281T49 376Q49 426 73 462T138 531Q101 576 101 632Q101 687 139 729T240 794T371 817Q432
817 487 806T563 780L536 620H445L432 722Q420 733 400 740T354 748Q240 748 240 675Q240 647 257 626T301 591T372 557Q428 533 463 513T523 458T548 375Q548 314 525 271T463 197Q505 147 505 89Q505 34 468 -6T370 -69T239 -91Q180 -91 119 -79T33 -54L61 116H151ZM436
332T418 352T373 388T297 427Q227 460 191 484Q178 471 172 458T165 424Q165 399 183 378T228 341T304 301Q313 296 348 279T410 242Q423 257 429 271T436 306Q436 332 418 352Z" />
<glyph unicode="&#xa8;" glyph-name="dieresis" horiz-adv-x="395" d="M51 654T30 678T9 733Q9 774 32 802T94 830Q127 830 146 807T166 754Q166 710 145 682T78 654Q51 654 30 678ZM271 654T251 678T230 733Q230 775 252 802T315 830Q347 830 367 807T387 754Q387
710 365 682T299 654Q271 654 251 678Z" />
<glyph unicode="&#xa9;" glyph-name="copyright" horiz-adv-x="1049" d="M131 605T188 702T342 855T555 911Q671 911 768 855T921 703T977 489Q977 372 921 275T768 122T555 66Q440 66 343 122T188 275T131 489Q131 605 188 702ZM206 390T252 308T379 178T555
130Q651 130 730 178T856 309T902 489Q902 588 856 670T731 799T555 847Q458 847 378 799T252 668T206 489Q206 390 252 308ZM455 251T399 316T343 489Q343 558 374 613T462 701T591 733Q627 733 665 725T717 703L714 571H644L621 639Q611 646 599 649T561 653Q511
653 486 613T460 508Q460 438 497 396T594 353Q621 353 647 363T691 388L725 327Q702 298 657 275T561 251Q455 251 399 316Z" />
<glyph unicode="&#xaa;" glyph-name="ordfeminine" horiz-adv-x="417" d="M386 446T386 438Q386 422 393 422Q402 422 420 433L436 406Q432 402 413 392T369 375T324 367Q291 367 275 382T262 425Q242 398 213 383T137 367Q83 367 52 412T20 529Q20 594 58 657T160
761T298 802Q318 802 341 798T381 788L452 806L387 451Q386 446 386 438ZM297 750T286 750Q244 750 215 719T171 638T156 537Q156 430 200 430Q216 430 232 438T260 459L313 741Q297 750 286 750Z" />
<glyph unicode="&#xab;" glyph-name="guillemotleft" horiz-adv-x="718" d="M415 540L242 297L339 61L265 35L67 259L80 338L350 565L415 540ZM689 540L512 297L613 61L539 35L336 259L349 338L624 565L689 540Z" />
<glyph unicode="&#xac;" glyph-name="logicalnot" horiz-adv-x="669" d="M590 425L560 157H455L476 342H102L111 425H590Z" />
<glyph unicode="&#xad;" glyph-name="uni00AD" horiz-adv-x="638" d="M544 368L527 274H105L122 368H544Z" />
<glyph unicode="&#xae;" glyph-name="registered" horiz-adv-x="1049" d="M131 605T188 702T342 855T555 911Q671 911 768 855T921 703T977 489Q977 372 921 275T768 122T555 66Q440 66 343 122T188 275T131 489Q131 605 188 702ZM206 390T252 308T379 178T555
130Q651 130 730 178T856 309T902 489Q902 588 856 670T731 799T555 847Q458 847 378 799T252 668T206 489Q206 390 252 308ZM392 656L353 667V725H452Q472 724 485 724T508 725Q538 727 567 727Q664 727 708 692T753 597Q753 548 731 511T653 464Q694 450 712
425T744 358Q751 334 758 323T782 310V255H668Q650 255 641 273T621 331Q610 376 598 401T561 433H515V316L558 306V255H353V306L392 319V656ZM531 497T564 497Q588 497 603 522T619 580Q619 626 605 645T555 664Q527 664 515 659V501Q531 497 564 497Z" />
<glyph unicode="&#xaf;" glyph-name="overscore" horiz-adv-x="300" d="M294 787L284 686H6L15 787H294Z" />
<glyph unicode="&#xb0;" glyph-name="degree" horiz-adv-x="422" d="M208 465T170 487T111 548T89 631Q89 678 112 717T175 778T265 801Q312 801 350 779T411 719T433 637Q433 589 410 550T346 488T255 465Q208 465 170 487ZM297 541T322 568T348 635Q348 672
323 698T262 724Q224 724 199 698T174 631Q174 594 199 568T259 541Q297 541 322 568Z" />
<glyph unicode="&#xb1;" glyph-name="plusminus" horiz-adv-x="650" d="M273 252L286 333L217 330H121L130 424H235L303 420L310 500L322 613H428L415 500L401 420L458 424H568L559 330H439L385 333Q385 319 383 293L380 252L366 134H260L273 252ZM96 88H511L502
0H88L96 88Z" />
<glyph unicode="&#xb2;" glyph-name="uni00B2" horiz-adv-x="492" d="M116 426T178 471T289 573T339 681Q339 756 266 756Q231 756 197 741T144 706L106 752Q130 781 186 808T302 835Q389 835 434 804T480 715Q480 637 392 558T185 420L409 449L438 499L491 487L459
343H90L67 398Q116 426 178 471Z" />
<glyph unicode="&#xb3;" glyph-name="uni00B3" horiz-adv-x="515" d="M213 335T175 341T106 363L113 428Q136 420 174 415T242 410Q301 410 331 434T361 497Q361 524 341 543T290 562H283L228 545L214 609Q247 617 273 631Q341 668 341 716Q343 759 284 759Q253
759 227 749T173 718L144 773Q175 800 227 817T337 835Q401 835 439 810T477 743Q477 702 450 669T349 609Q356 610 369 610Q423 610 461 581T500 499Q500 453 471 416T384 357T248 335Q213 335 175 341Z" />
<glyph unicode="&#xb4;" glyph-name="acute" horiz-adv-x="272" d="M233 876L323 786Q314 770 276 735T192 668T119 624L75 666L233 876Z" />
<glyph unicode="&#xb5;" glyph-name="uni00B5" horiz-adv-x="666" d="M21 -182L74 175Q83 240 90 278Q92 292 100 346T113 452Q113 480 93 480Q75 480 57 464L42 502Q45 505 61 522T112 553T190 568Q229 568 253 553T277 505Q274 454 255 333L249 296Q242 257
239 230T236 168Q236 121 253 102T296 82Q323 82 339 94T365 121T379 141L438 564H594L531 110Q527 73 551 73Q563 73 578 83T596 95L609 60Q596 37 559 14T474 -10Q403 -10 403 47L404 58Q399 53 383 35T341 4T279 -10Q248 -10 219 0T179 27L148 -182H21Z" />
<glyph unicode="&#xb6;" glyph-name="paragraph" horiz-adv-x="706" d="M94 42L194 57L239 398Q191 398 151 424T86 494T62 591Q62 834 381 834Q423 834 485 830Q540 826 588 825H733L728 775L646 758L602 414Q568 158 556 57L632 42L627 0H414L510 757L414 758L317
0H90L94 42Z" />
<glyph unicode="&#xb7;" glyph-name="middot" horiz-adv-x="97" d="M31 356T10 379T-12 438Q-12 483 15 510T79 538Q114 538 135 514T157 457Q157 408 128 382T60 356Q31 356 10 379Z" />
<glyph unicode="&#xb8;" glyph-name="cedilla" horiz-adv-x="234" d="M193 15Q203 1 210 -32T217 -98Q217 -158 179 -197T65 -236Q46 -236 19 -231T-17 -220L0 -148Q16 -156 39 -156Q126 -156 126 -62Q126 -12 121 15L157 17L193 15Z" />
<glyph unicode="&#xb9;" glyph-name="uni00B9" horiz-adv-x="458" d="M201 394L235 677Q216 667 180 658T112 647L103 711Q139 716 214 750T319 812H320L384 800L335 394L446 383L437 320H80L88 383L201 394Z" />
<glyph unicode="&#xba;" glyph-name="ordmasculine" horiz-adv-x="420" d="M366 802T413 753T460 622Q460 543 427 485T340 397T221 367Q171 367 132 389T70 452T47 546Q47 624 81 682T169 771T284 802Q366 802 413 753ZM222 747T195 690T167 562Q167 500 186
462T237 424Q294 424 312 475T331 613Q331 674 317 710T275 747Q222 747 195 690Z" />
<glyph unicode="&#xbb;" glyph-name="guillemotright" horiz-adv-x="678" d="M381 328L368 258L94 35L29 61L205 297L105 540L178 565L381 328ZM631 328L618 258L348 35L284 61L455 297L359 540L433 565L631 328Z" />
<glyph unicode="&#xbc;" glyph-name="onequarter" horiz-adv-x="1126" d="M187 332L221 615Q201 605 166 596T101 585L92 649Q127 654 201 688T304 750H305L370 738L321 332L434 321L426 258H69L77 321L187 332ZM799 747L426 0H330L703 747H799ZM909 546H937L1016
494L791 213L749 170L913 179L930 293L1032 303L1014 185L1091 189L1080 96H1002L989 0H888L901 96H662L637 162L909 546Z" />
<glyph unicode="&#xbd;" glyph-name="onehalf" horiz-adv-x="1125" d="M187 332L221 615Q201 605 166 596T101 585L92 649Q127 654 201 688T304 750H305L370 738L321 332L434 321L426 258H69L77 321L187 332ZM799 747L426 0H330L703 747H799ZM701 83T763 128T874
230T924 338Q924 413 851 413Q816 413 782 398T729 363L691 409Q715 438 771 465T887 492Q974 492 1019 461T1065 372Q1065 294 977 215T770 77L994 106L1023 156L1076 144L1044 0H675L652 55Q701 83 763 128Z" />
<glyph unicode="&#xbe;" glyph-name="threequarters" horiz-adv-x="1172" d="M201 250T163 256T94 278L101 343Q124 335 162 330T230 325Q289 325 319 349T349 412Q349 439 329 458T278 477H271L216 460L202 524Q235 532 261 546Q329 583 329 631Q331 674 272
674Q241 674 215 664T161 633L132 688Q163 715 215 732T325 750Q389 750 427 725T465 658Q465 617 438 584T337 524Q344 525 357 525Q411 525 449 496T488 414Q488 368 459 331T372 272T236 250Q201 250 163 256ZM845 747L472 0H376L749 747H845ZM955 546H983L1062
494L837 213L795 170L959 179L976 293L1078 303L1060 185L1137 189L1126 96H1048L1035 0H934L947 96H708L683 162L955 546Z" />
<glyph unicode="&#xbf;" glyph-name="questiondown" horiz-adv-x="495" d="M405 433T414 400T423 340Q423 306 405 281T362 238T284 189Q243 168 212 147T166 109Q161 99 159 81T156 46Q156 -14 199 -49T319 -85Q349 -85 381 -80T434 -65L411 -163Q397 -174 355
-189T265 -204Q137 -204 85 -143T32 6Q32 88 74 147Q106 190 149 222T240 275Q268 288 287 306T309 349Q310 358 310 375Q310 410 304 428L387 452L394 451Q405 433 414 400ZM408 580T380 553T316 526Q282 526 263 549T244 604Q244 650 273 675T342 701Q370 701
389 679T408 623Q408 580 380 553Z" />
<glyph unicode="&#xc0;" glyph-name="Agrave" horiz-adv-x="660" d="M481 745L602 66L680 51L677 0H344L346 51L423 65L403 204H164L105 65L197 51L193 0H-78L-74 51L-6 65L314 745H481ZM195 277H393L354 547L350 640L195 277ZM385 801T335 838T261 915L345 976L481
830L422 792Q385 801 335 838Z" />
<glyph unicode="&#xc1;" glyph-name="Aacute" horiz-adv-x="660" d="M481 745L602 66L680 51L677 0H344L346 51L423 65L403 204H164L105 65L197 51L193 0H-78L-74 51L-6 65L314 745H481ZM195 277H393L354 547L350 640L195 277ZM494 983L582 913Q559 884 497 843T401
793L339 835L494 983Z" />
<glyph unicode="&#xc2;" glyph-name="Acircumflex" horiz-adv-x="660" d="M481 745L602 66L680 51L677 0H344L346 51L423 65L403 204H164L105 65L197 51L193 0H-78L-74 51L-6 65L314 745H481ZM195 277H393L354 547L350 640L195 277ZM383 983H470L572 809L513 781L414
883L256 781L205 809L383 983Z" />
<glyph unicode="&#xc3;" glyph-name="Atilde" horiz-adv-x="660" d="M481 745L602 66L680 51L677 0H344L346 51L423 65L403 204H164L105 65L197 51L193 0H-78L-74 51L-6 65L314 745H481ZM195 277H393L354 547L350 640L195 277ZM237 921T271 945T349 970Q377 970
395 959T434 927Q449 912 460 905T485 897Q524 897 560 946L599 892Q585 857 551 830T476 803Q445 803 427 813T387 844Q371 861 359 868T327 876Q307 876 291 866T257 836L225 887Q237 921 271 945Z" />
<glyph unicode="&#xc4;" glyph-name="Adieresis" horiz-adv-x="660" d="M481 745L602 66L680 51L677 0H344L346 51L423 65L403 204H164L105 65L197 51L193 0H-78L-74 51L-6 65L314 745H481ZM195 277H393L354 547L350 640L195 277ZM259 812T240 832T221 881Q221
922 243 945T303 968Q336 968 354 950T372 902Q372 860 351 836T287 812Q259 812 240 832ZM498 812T479 832T460 881Q460 922 482 945T542 968Q574 968 592 950T610 902Q610 860 589 836T526 812Q498 812 479 832Z" />
<glyph unicode="&#xc5;" glyph-name="Aring" horiz-adv-x="660" d="M275 752T254 777T233 840Q233 917 293 950T426 983Q493 983 535 955T578 875Q578 825 552 793T480 743L602 66L680 51L677 0H344L346 51L423 65L403 204H164L105 65L197 51L193 0H-78L-74 51L-6
65L312 740Q275 752 254 777ZM379 918T353 903T327 852Q327 827 349 811T399 795Q485 795 485 861Q485 886 463 902T414 918Q379 918 353 903ZM195 277H393L354 547L350 640L195 277Z" />
<glyph unicode="&#xc6;" glyph-name="AE" horiz-adv-x="979" d="M325 51L402 65L420 204H188L116 65L209 51L206 0H-100L-96 51L-19 65L336 673L192 686L200 743H960L942 564H836L819 673L652 685L616 423L838 443L821 333L607 348L569 65L797 82L854 227L956
220L922 0H318L325 51ZM226 277H430L483 685H440L226 277Z" />
<glyph unicode="&#xc7;" glyph-name="Ccedilla" horiz-adv-x="634" d="M29 448T82 547T233 699T461 752Q519 752 551 748T617 734L637 729L653 725L623 529H502L483 681Q461 689 435 689Q361 689 311 634T238 493T217 321Q221 195 253 133T356 70Q425 70 463 106Q482
130 502 205H598L577 65Q544 38 496 18T369 -7Q385 -48 385 -105Q385 -164 347 -199T232 -235Q211 -235 189 -230T153 -214L173 -134Q185 -140 214 -140Q247 -140 263 -132T286 -103T290 -45Q290 -28 286 -6Q154 7 92 94T29 311Q29 448 82 547Z" />
<glyph unicode="&#xc8;" glyph-name="Egrave" horiz-adv-x="636" d="M625 743L608 564H508L488 673L317 685L283 429L507 451L489 339L273 354L239 73L467 90L520 227L622 220L587 0H-17L-10 51L68 65L148 678L77 689L83 743H625ZM367 801T317 838T243 915L327
976L463 830L404 792Q367 801 317 838Z" />
<glyph unicode="&#xc9;" glyph-name="Eacute" horiz-adv-x="636" d="M503 983L591 913Q568 884 506 843T410 793L348 835L503 983ZM625 743L608 564H508L488 673L317 685L283 429L507 451L489 339L273 354L239 73L467 90L520 227L622 220L587 0H-17L-10 51L68
65L148 678L77 689L83 743H625Z" />
<glyph unicode="&#xca;" glyph-name="Ecircumflex" horiz-adv-x="636" d="M625 743L608 564H508L488 673L317 685L283 429L507 451L489 339L273 354L239 73L467 90L520 227L622 220L587 0H-17L-10 51L68 65L148 678L77 689L83 743H625ZM365 983H452L554 809L495
781L396 883L238 781L187 809L365 983Z" />
<glyph unicode="&#xcb;" glyph-name="Edieresis" horiz-adv-x="636" d="M625 743L608 564H508L488 673L317 685L283 429L507 451L489 339L273 354L239 73L467 90L520 227L622 220L587 0H-17L-10 51L68 65L148 678L77 689L83 743H625ZM241 812T222 832T203 881Q203
922 225 945T285 968Q318 968 336 950T354 902Q354 860 333 836T269 812Q241 812 222 832ZM480 812T461 832T442 881Q442 922 464 945T524 968Q556 968 574 950T592 902Q592 860 571 836T508 812Q480 812 461 832Z" />
<glyph unicode="&#xcc;" glyph-name="Igrave" horiz-adv-x="374" d="M411 743L405 689L321 678L241 65L326 51L323 0H-8L-1 51L72 65L152 678L81 689L86 743H411ZM238 801T188 838T114 915L198 976L334 830L275 792Q238 801 188 838Z" />
<glyph unicode="&#xcd;" glyph-name="Iacute" horiz-adv-x="374" d="M411 743L405 689L321 678L241 65L326 51L323 0H-8L-1 51L72 65L152 678L81 689L86 743H411ZM347 983L435 913Q412 884 350 843T254 793L192 835L347 983Z" />
<glyph unicode="&#xce;" glyph-name="Icircumflex" horiz-adv-x="374" d="M411 743L405 689L321 678L241 65L326 51L323 0H-8L-1 51L72 65L152 678L81 689L86 743H411ZM236 983H323L425 809L366 781L267 883L109 781L58 809L236 983Z" />
<glyph unicode="&#xcf;" glyph-name="Idieresis" horiz-adv-x="374" d="M411 743L405 689L321 678L241 65L326 51L323 0H-8L-1 51L72 65L152 678L81 689L86 743H411ZM112 812T93 832T74 881Q74 922 96 945T156 968Q189 968 207 950T225 902Q225 860 204 836T140
812Q112 812 93 832ZM351 812T332 832T313 881Q313 922 335 945T395 968Q427 968 445 950T463 902Q463 860 442 836T379 812Q351 812 332 832Z" />
<glyph unicode="&#xd0;" glyph-name="Eth" horiz-adv-x="736" d="M259 744T321 748Q383 752 415 752Q580 752 655 671T730 451Q730 239 623 116T294 -7Q275 -7 257 -3Q207 1 150 1H-15L-9 52L68 66L105 343H38L50 425H116L150 679L80 690L85 744H230Q259 744 321
748ZM276 55T305 55Q389 55 444 112T524 255T549 434Q549 571 513 630T396 690Q369 690 348 687T317 679L284 425H430L418 343H273L236 67Q276 55 305 55Z" />
<glyph unicode="&#xd1;" glyph-name="Ntilde" horiz-adv-x="758" d="M352 743L535 259L573 147L640 678L556 689L561 743H805L800 689L740 678L636 0H464L272 500L234 623L172 65L265 51L260 0H-8L-4 51L68 65L158 678L76 689L84 743H352ZM302 921T336 945T414
970Q442 970 460 959T499 927Q514 912 525 905T550 897Q589 897 625 946L664 892Q650 857 616 830T541 803Q510 803 492 813T452 844Q436 861 424 868T392 876Q372 876 356 866T322 836L290 887Q302 921 336 945Z" />
<glyph unicode="&#xd2;" glyph-name="Ograve" horiz-adv-x="713" d="M559 753T628 664T697 436Q697 318 657 217T530 53T313 -10Q169 -10 100 77T31 311Q31 429 73 529T203 691T415 753Q559 753 628 664ZM343 692T301 639T236 500T213 317Q214 199 238 125T327
50Q388 50 430 99T493 233T514 425Q514 556 488 624T401 692Q343 692 301 639ZM427 801T377 838T303 915L387 976L523 830L464 792Q427 801 377 838Z" />
<glyph unicode="&#xd3;" glyph-name="Oacute" horiz-adv-x="713" d="M519 983L607 913Q584 884 522 843T426 793L364 835L519 983ZM561 753T630 664T699 436Q699 318 659 217T532 53T315 -10Q171 -10 102 77T33 311Q33 429 75 529T205 691T417 753Q561 753 630
664ZM345 692T303 639T238 500T215 317Q216 199 240 125T329 50Q390 50 432 99T495 233T516 425Q516 556 490 624T403 692Q345 692 303 639Z" />
<glyph unicode="&#xd4;" glyph-name="Ocircumflex" horiz-adv-x="713" d="M559 753T628 664T697 436Q697 318 657 217T530 53T313 -10Q169 -10 100 77T31 311Q31 429 73 529T203 691T415 753Q559 753 628 664ZM343 692T301 639T236 500T213 317Q214 199 238 125T327
50Q388 50 430 99T493 233T514 425Q514 556 488 624T401 692Q343 692 301 639ZM425 983H512L614 809L555 781L456 883L298 781L247 809L425 983Z" />
<glyph unicode="&#xd5;" glyph-name="Otilde" horiz-adv-x="713" d="M559 753T628 664T697 436Q697 318 657 217T530 53T313 -10Q169 -10 100 77T31 311Q31 429 73 529T203 691T415 753Q559 753 628 664ZM343 692T301 639T236 500T213 317Q214 199 238 125T327
50Q388 50 430 99T493 233T514 425Q514 556 488 624T401 692Q343 692 301 639ZM279 921T313 945T391 970Q419 970 437 959T476 927Q491 912 502 905T527 897Q566 897 602 946L641 892Q627 857 593 830T518 803Q487 803 469 813T429 844Q413 861 401 868T369 876Q349
876 333 866T299 836L267 887Q279 921 313 945Z" />
<glyph unicode="&#xd6;" glyph-name="Odieresis" horiz-adv-x="713" d="M559 753T628 664T697 436Q697 318 657 217T530 53T313 -10Q169 -10 100 77T31 311Q31 429 73 529T203 691T415 753Q559 753 628 664ZM343 692T301 639T236 500T213 317Q214 199 238 125T327
50Q388 50 430 99T493 233T514 425Q514 556 488 624T401 692Q343 692 301 639ZM301 812T282 832T263 881Q263 922 285 945T345 968Q378 968 396 950T414 902Q414 860 393 836T329 812Q301 812 282 832ZM540 812T521 832T502 881Q502 922 524 945T584 968Q616 968
634 950T652 902Q652 860 631 836T568 812Q540 812 521 832Z" />
<glyph unicode="&#xd7;" glyph-name="multiply" horiz-adv-x="669" d="M342 311L309 279L162 141L100 215L287 374L140 534L218 607L355 436L496 569L535 606L597 532L411 373L558 213L479 140L342 311Z" />
<glyph unicode="&#xd8;" glyph-name="Oslash" horiz-adv-x="713" d="M650 653T674 586T699 437Q699 319 659 218T532 54T315 -9Q228 -9 164 26L102 -65L59 -37L123 56Q78 98 56 164T33 312Q33 430 75 530T204 692T416 754Q499 754 558 723L624 820L667 793L599
695Q650 653 674 586ZM463 693T403 693Q345 693 303 640T238 501T215 318Q215 244 225 187L491 621Q463 693 403 693ZM266 51T329 51Q420 51 468 157T516 431Q516 515 505 566L239 129Q266 51 329 51Z" />
<glyph unicode="&#xd9;" glyph-name="Ugrave" horiz-adv-x="714" d="M630 137T554 64T340 -10Q205 -10 141 50T77 209Q77 261 80 290L130 678L60 689L66 743H400L396 690L299 678L250 304Q242 226 242 206Q242 135 275 93T370 50Q456 50 499 113T560 306L610 678L538
690L543 743H769L762 690L699 678L651 306Q630 137 554 64ZM439 801T389 838T315 915L399 976L535 830L476 792Q439 801 389 838Z" />
<glyph unicode="&#xda;" glyph-name="Uacute" horiz-adv-x="714" d="M630 137T554 64T340 -10Q205 -10 141 50T77 209Q77 261 80 290L130 678L60 689L66 743H400L396 690L299 678L250 304Q242 226 242 206Q242 135 275 93T370 50Q456 50 499 113T560 306L610 678L538
690L543 743H769L762 690L699 678L651 306Q630 137 554 64ZM548 983L636 913Q613 884 551 843T455 793L393 835L548 983Z" />
<glyph unicode="&#xdb;" glyph-name="Ucircumflex" horiz-adv-x="714" d="M630 137T554 64T340 -10Q205 -10 141 50T77 209Q77 261 80 290L130 678L60 689L66 743H400L396 690L299 678L250 304Q242 226 242 206Q242 135 275 93T370 50Q456 50 499 113T560 306L610
678L538 690L543 743H769L762 690L699 678L651 306Q630 137 554 64ZM437 983H524L626 809L567 781L468 883L310 781L259 809L437 983Z" />
<glyph unicode="&#xdc;" glyph-name="Udieresis" horiz-adv-x="714" d="M630 137T554 64T340 -10Q205 -10 141 50T77 209Q77 261 80 290L130 678L60 689L66 743H400L396 690L299 678L250 304Q242 226 242 206Q242 135 275 93T370 50Q456 50 499 113T560 306L610
678L538 690L543 743H769L762 690L699 678L651 306Q630 137 554 64ZM313 812T294 832T275 881Q275 922 297 945T357 968Q390 968 408 950T426 902Q426 860 405 836T341 812Q313 812 294 832ZM552 812T533 832T514 881Q514 922 536 945T596 968Q628 968 646 950T664
902Q664 860 643 836T580 812Q552 812 533 832Z" />
<glyph unicode="&#xdd;" glyph-name="Yacute" horiz-adv-x="633" d="M357 743L349 689L265 678L345 442L368 370L399 429L546 678L466 689L471 743H729L722 689L658 678L407 295L377 65L496 51L491 0H90L96 51L209 65L237 295L74 678L11 689L16 743H357ZM517 983L605
913Q582 884 520 843T424 793L362 835L517 983Z" />
<glyph unicode="&#xde;" glyph-name="Thorn" horiz-adv-x="638" d="M372 571T408 571Q540 571 595 526T651 410Q651 308 578 238T309 168Q274 168 254 170L239 65L324 51L320 0H-3L1 51L70 65L151 678L80 690L87 743H413L407 690L320 678L306 567Q372 571 408
571ZM318 234Q387 234 430 272T473 390Q473 447 442 477T355 508Q332 508 297 501L262 234H318Z" />
<glyph unicode="&#xdf;" glyph-name="germandbls" horiz-adv-x="605" d="M95 589T146 660T259 752T399 774Q452 774 497 757T569 706T597 626Q597 586 584 559T552 515T504 481Q473 461 460 448T447 411Q447 398 455 384T477 351T497 324Q507 312 512 307Q544
270 561 239T579 167Q579 85 523 39T371 -8Q275 -8 231 15L244 106Q255 90 282 74T334 57Q375 57 396 72T417 139Q417 185 372 255Q350 286 334 322T317 387Q317 419 329 438T370 488Q439 557 439 628Q439 666 421 691T371 716Q318 716 284 648T232 425L180 0H20L75
453Q95 589 146 660Z" />
<glyph unicode="&#xe0;" glyph-name="agrave" horiz-adv-x="592" d="M490 105T490 97Q490 73 510 73Q527 73 554 95L568 61Q554 39 518 15T433 -10Q397 -10 375 5T351 48V54Q289 -10 202 -10Q115 -10 72 48T29 196Q29 293 67 378T182 516T364 568Q390 568 422
562T479 547L554 568L491 110Q490 105 490 97ZM365 501T353 501Q297 501 262 456T211 343T196 202Q196 142 215 108T269 74Q301 74 333 104L387 497Q365 501 353 501ZM364 648T324 676T248 739T197 798L295 884L436 673L385 639Q364 648 324 676Z" />
<glyph unicode="&#xe1;" glyph-name="aacute" horiz-adv-x="592" d="M490 105T490 97Q490 73 510 73Q527 73 554 95L568 61Q554 39 518 15T433 -10Q397 -10 375 5T351 48V54Q289 -10 202 -10Q115 -10 72 48T29 196Q29 293 67 378T182 516T364 568Q390 568 422
562T479 547L554 568L491 110Q490 105 490 97ZM365 501T353 501Q297 501 262 456T211 343T196 202Q196 142 215 108T269 74Q301 74 333 104L387 497Q365 501 353 501ZM461 884L554 794Q545 778 506 743T421 675T347 631L303 674L461 884Z" />
<glyph unicode="&#xe2;" glyph-name="acircumflex" horiz-adv-x="592" d="M490 105T490 97Q490 73 510 73Q527 73 554 95L568 61Q554 39 518 15T433 -10Q397 -10 375 5T351 48V54Q289 -10 202 -10Q115 -10 72 48T29 196Q29 293 67 378T182 516T364 568Q390 568
422 562T479 547L554 568L491 110Q490 105 490 97ZM365 501T353 501Q297 501 262 456T211 343T196 202Q196 142 215 108T269 74Q301 74 333 104L387 497Q365 501 353 501ZM375 861L447 856L548 652L486 627L386 739L233 625L186 657L375 861Z" />
<glyph unicode="&#xe3;" glyph-name="atilde" horiz-adv-x="592" d="M490 105T490 97Q490 73 510 73Q527 73 554 95L568 61Q554 39 518 15T433 -10Q397 -10 375 5T351 48V54Q289 -10 202 -10Q115 -10 72 48T29 196Q29 293 67 378T182 516T364 568Q390 568 422
562T479 547L554 568L491 110Q490 105 490 97ZM365 501T353 501Q297 501 262 456T211 343T196 202Q196 142 215 108T269 74Q301 74 333 104L387 497Q365 501 353 501ZM217 747T250 771T319 796Q347 796 364 787T405 761Q421 748 432 742T457 736Q482 736 496 747T530
782L572 732Q559 699 523 672T449 645Q422 645 405 653T369 678Q353 692 340 699T308 706Q285 706 271 697T237 666L201 715Q217 747 250 771Z" />
<glyph unicode="&#xe4;" glyph-name="adieresis" horiz-adv-x="592" d="M490 105T490 97Q490 73 510 73Q527 73 554 95L568 61Q554 39 518 15T433 -10Q397 -10 375 5T351 48V54Q289 -10 202 -10Q115 -10 72 48T29 196Q29 293 67 378T182 516T364 568Q390 568 422
562T479 547L554 568L491 110Q490 105 490 97ZM365 501T353 501Q297 501 262 456T211 343T196 202Q196 142 215 108T269 74Q301 74 333 104L387 497Q365 501 353 501ZM241 650T220 674T199 729Q199 771 222 798T284 826Q317 826 336 803T356 748Q356 705 334 678T268
650Q241 650 220 674ZM461 650T441 674T420 729Q420 771 442 798T505 826Q537 826 557 803T577 750Q577 706 555 678T489 650Q461 650 441 674Z" />
<glyph unicode="&#xe5;" glyph-name="aring" horiz-adv-x="592" d="M490 105T490 97Q490 73 510 73Q527 73 554 95L568 61Q554 39 518 15T433 -10Q397 -10 375 5T351 48V54Q289 -10 202 -10Q115 -10 72 48T29 196Q29 293 67 378T182 516T364 568Q390 568 422 562T479
547L554 568L491 110Q490 105 490 97ZM365 501T353 501Q297 501 262 456T211 343T196 202Q196 142 215 108T269 74Q301 74 333 104L387 497Q365 501 353 501ZM305 641T263 672T221 760Q221 814 250 849T322 900T413 916Q478 916 521 882T565 794Q565 720 510 681T376
641Q305 641 263 672ZM421 710T447 726T473 780Q473 807 451 828T401 849Q369 849 342 829T314 771Q314 746 337 728T386 710Q421 710 447 726Z" />
<glyph unicode="&#xe6;" glyph-name="ae" horiz-adv-x="851" d="M600 568T670 568Q750 568 790 533T830 441Q830 368 782 319T664 247T526 222Q526 77 619 77Q670 77 704 98T765 153L795 104Q770 62 710 26T567 -10Q487 -10 439 25T372 121Q336 67 287 29T182
-10Q98 -10 64 46T29 191Q29 288 73 374T201 514T397 568Q440 568 496 553L540 568L536 536Q600 568 670 568ZM583 501T558 435T526 281Q557 283 592 301T652 352T676 430Q676 501 634 501Q583 501 558 435ZM390 500T385 500T375 500Q317 493 277 447T216 335T196
202Q196 154 206 121T240 87Q264 87 290 109T341 165L392 500Q390 500 385 500Z" />
<glyph unicode="&#xe7;" glyph-name="ccedilla" horiz-adv-x="468" d="M29 312T64 390T171 518T343 568Q376 568 410 563T468 549L428 394L393 395Q365 438 344 465T309 492Q282 492 255 459T211 368T193 239Q193 154 213 118T280 82Q323 82 352 98T404 144L435
94Q416 64 376 36T280 -4Q288 -26 293 -58T299 -115Q299 -236 153 -236Q131 -236 98 -232T57 -223L75 -148Q91 -156 113 -156Q154 -156 177 -138T202 -74Q203 -67 203 -54Q203 -35 199 -9Q119 -3 74 57T29 227Q29 312 64 390Z" />
<glyph unicode="&#xe8;" glyph-name="egrave" horiz-adv-x="527" d="M445 61T386 24T244 -14Q170 -14 122 17T52 100T30 210Q30 312 71 394T185 522T346 569Q428 569 467 533T506 440Q506 367 458 319T341 247T203 222Q202 148 226 110T295 72Q346 72 380 95T441
153L472 104Q445 61 386 24ZM259 501T234 434T203 281Q234 283 269 300T328 351T352 428Q352 501 311 501Q259 501 234 434ZM335 649T295 677T219 740T168 799L266 885L407 674L356 640Q335 649 295 677Z" />
<glyph unicode="&#xe9;" glyph-name="eacute" horiz-adv-x="527" d="M445 61T386 24T244 -14Q170 -14 122 17T52 100T30 210Q30 312 71 394T185 522T346 569Q428 569 467 533T506 440Q506 367 458 319T341 247T203 222Q202 148 226 110T295 72Q346 72 380 95T441
153L472 104Q445 61 386 24ZM259 501T234 434T203 281Q234 283 269 300T328 351T352 428Q352 501 311 501Q259 501 234 434ZM432 885L525 795Q516 779 477 744T392 676T318 632L274 675L432 885Z" />
<glyph unicode="&#xea;" glyph-name="ecircumflex" horiz-adv-x="527" d="M445 61T386 24T244 -14Q170 -14 122 17T52 100T30 210Q30 312 71 394T185 522T346 569Q428 569 467 533T506 440Q506 367 458 319T341 247T203 222Q202 148 226 110T295 72Q346 72 380
95T441 153L472 104Q445 61 386 24ZM259 501T234 434T203 281Q234 283 269 300T328 351T352 428Q352 501 311 501Q259 501 234 434ZM346 862L418 857L519 653L457 628L357 740L204 626L157 658L346 862Z" />
<glyph unicode="&#xeb;" glyph-name="edieresis" horiz-adv-x="527" d="M445 61T386 24T244 -14Q170 -14 122 17T52 100T30 210Q30 312 71 394T185 522T346 569Q428 569 467 533T506 440Q506 367 458 319T341 247T203 222Q202 148 226 110T295 72Q346 72 380 95T441
153L472 104Q445 61 386 24ZM259 501T234 434T203 281Q234 283 269 300T328 351T352 428Q352 501 311 501Q259 501 234 434ZM212 651T191 675T170 730Q170 772 193 799T255 827Q288 827 307 804T327 749Q327 706 305 679T239 651Q212 651 191 675ZM432 651T412
675T391 730Q391 772 413 799T476 827Q508 827 528 804T548 751Q548 707 526 679T460 651Q432 651 412 675Z" />
<glyph unicode="&#xec;" glyph-name="igrave" horiz-adv-x="327" d="M217 105T217 97Q217 73 235 73Q243 73 252 78T280 95L293 61Q276 38 241 14T151 -10Q105 -10 80 7T54 53Q54 59 55 63L81 260L109 469L53 499L61 542L254 568L280 556L218 110Q217 105 217
97ZM197 649T157 677T81 740T30 799L128 885L269 674L218 640Q197 649 157 677Z" />
<glyph unicode="&#xed;" glyph-name="iacute" horiz-adv-x="327" d="M217 105T217 97Q217 73 235 73Q243 73 252 78T280 95L293 61Q276 38 241 14T151 -10Q105 -10 80 7T54 53Q54 59 55 63L81 260L109 469L53 499L61 542L254 568L280 556L218 110Q217 105 217
97ZM294 885L387 795Q378 779 339 744T254 676T180 632L136 675L294 885Z" />
<glyph unicode="&#xee;" glyph-name="icircumflex" horiz-adv-x="327" d="M217 105T217 97Q217 73 235 73Q243 73 252 78T280 95L293 61Q276 38 241 14T151 -10Q105 -10 80 7T54 53Q54 59 55 63L81 260L109 469L53 499L61 542L254 568L280 556L218 110Q217 105
217 97ZM208 862L280 857L381 653L319 628L219 740L66 626L19 658L208 862Z" />
<glyph unicode="&#xef;" glyph-name="idieresis" horiz-adv-x="327" d="M217 105T217 97Q217 73 235 73Q243 73 252 78T280 95L293 61Q276 38 241 14T151 -10Q105 -10 80 7T54 53Q54 59 55 63L81 260L109 469L53 499L61 542L254 568L280 556L218 110Q217 105 217
97ZM74 651T53 675T32 730Q32 772 55 799T117 827Q150 827 169 804T189 749Q189 706 167 679T101 651Q74 651 53 675ZM294 651T274 675T253 730Q253 772 275 799T338 827Q370 827 390 804T410 751Q410 707 388 679T322 651Q294 651 274 675Z" />
<glyph unicode="&#xf0;" glyph-name="eth" horiz-adv-x="582" d="M221 786T179 798L205 875Q236 866 274 848T348 806Q373 835 392 859T418 892L474 844L403 762Q478 690 516 592T555 392Q555 276 518 185T409 42T242 -10Q173 -10 125 24T53 113T29 225Q29 322
64 393T161 503T301 542Q337 542 356 539T391 527Q391 559 376 601T330 684L264 608L208 656L280 734Q221 786 179 798ZM268 477T243 433T205 324T192 195Q192 132 207 92T256 51Q304 51 338 113T383 269Q392 350 392 360Q392 402 374 439T306 477Q268 477 243
433Z" />
<glyph unicode="&#xf1;" glyph-name="ntilde" horiz-adv-x="636" d="M292 506T339 537T442 568Q572 568 572 420Q572 391 548 247Q546 232 540 200Q526 126 526 100Q526 73 545 73Q553 73 562 77T589 95L603 61Q586 38 550 14T458 -10Q400 -10 380 13T360 72Q360
99 377 184L383 216Q405 341 405 397Q405 440 396 456T366 472Q337 472 303 438T245 352L197 0H42L105 471L53 499L61 542L241 568L266 556L258 453Q292 506 339 537ZM191 748T224 772T293 797Q321 797 338 788T379 762Q395 749 406 743T431 737Q456 737 470 748T504
783L546 733Q533 700 497 673T423 646Q396 646 379 654T343 679Q327 693 314 700T282 707Q259 707 245 698T211 667L175 716Q191 748 224 772Z" />
<glyph unicode="&#xf2;" glyph-name="ograve" horiz-adv-x="603" d="M456 569T512 509T569 331Q569 236 530 157T420 32T255 -14Q145 -14 89 47T33 226Q33 321 72 399T182 523T346 569Q456 569 512 509ZM285 501T257 457T217 345T206 210Q209 123 225 86T278 49Q337
49 365 131T394 323Q394 422 379 461T328 501Q285 501 257 457ZM351 659T311 687T235 750T184 809L282 895L423 684L372 650Q351 659 311 687Z" />
<glyph unicode="&#xf3;" glyph-name="oacute" horiz-adv-x="583" d="M495 876L585 786Q576 770 538 735T454 668T381 624L337 666L495 876ZM456 569T512 509T569 331Q569 236 530 157T420 32T255 -14Q145 -14 89 47T33 226Q33 321 72 399T182 523T346 569Q456
569 512 509ZM285 501T257 457T217 345T206 210Q209 123 225 86T278 49Q337 49 365 131T394 323Q394 422 379 461T328 501Q285 501 257 457Z" />
<glyph unicode="&#xf4;" glyph-name="ocircumflex" horiz-adv-x="603" d="M456 569T512 509T569 331Q569 236 530 157T420 32T255 -14Q145 -14 89 47T33 226Q33 321 72 399T182 523T346 569Q456 569 512 509ZM285 501T257 457T217 345T206 210Q209 123 225 86T278
49Q337 49 365 131T394 323Q394 422 379 461T328 501Q285 501 257 457ZM362 872L434 867L535 663L473 638L373 750L220 636L173 668L362 872Z" />
<glyph unicode="&#xf5;" glyph-name="otilde" horiz-adv-x="603" d="M456 569T512 509T569 331Q569 236 530 157T420 32T255 -14Q145 -14 89 47T33 226Q33 321 72 399T182 523T346 569Q456 569 512 509ZM285 501T257 457T217 345T206 210Q209 123 225 86T278 49Q337
49 365 131T394 323Q394 422 379 461T328 501Q285 501 257 457ZM204 758T237 782T306 807Q334 807 351 798T392 772Q408 759 419 753T444 747Q469 747 483 758T517 793L559 743Q546 710 510 683T436 656Q409 656 392 664T356 689Q340 703 327 710T295 717Q272 717
258 708T224 677L188 726Q204 758 237 782Z" />
<glyph unicode="&#xf6;" glyph-name="odieresis" horiz-adv-x="603" d="M456 569T512 509T569 331Q569 236 530 157T420 32T255 -14Q145 -14 89 47T33 226Q33 321 72 399T182 523T346 569Q456 569 512 509ZM285 501T257 457T217 345T206 210Q209 123 225 86T278
49Q337 49 365 131T394 323Q394 422 379 461T328 501Q285 501 257 457ZM228 661T207 685T186 740Q186 782 209 809T271 837Q304 837 323 814T343 759Q343 716 321 689T255 661Q228 661 207 685ZM448 661T428 685T407 740Q407 782 429 809T492 837Q524 837 544 814T564
761Q564 717 542 689T476 661Q448 661 428 685Z" />
<glyph unicode="&#xf7;" glyph-name="divide" horiz-adv-x="669" d="M337 505T318 527T298 583Q298 626 326 653T391 680Q424 680 443 657T462 602Q462 556 432 531T364 505Q337 505 318 527ZM585 425L577 330H119L128 425H585ZM243 195T271 222T335 249Q370 249
388 226T407 171Q407 125 378 100T309 75Q282 75 263 97T243 152Q243 195 271 222Z" />
<glyph unicode="&#xf8;" glyph-name="oslash" horiz-adv-x="584" d="M560 466T560 334Q560 239 522 160T412 34T247 -13Q184 -13 134 9L82 -64L39 -41L93 36Q25 96 25 227Q25 323 63 401T172 524T336 570Q394 570 442 551L502 636L545 612L485 526Q560 466 560
334ZM355 501T320 501Q277 501 249 457T208 346T198 211Q198 192 199 183L370 458Q355 501 320 501ZM217 78T231 64T269 50Q331 50 359 141T386 348L383 386L209 109Q217 78 231 64Z" />
<glyph unicode="&#xf9;" glyph-name="ugrave" horiz-adv-x="624" d="M232 253Q219 166 219 138Q219 102 230 87T266 71Q293 71 318 85T363 122L423 564H580L517 110Q513 73 537 73Q545 73 553 77T581 95L595 61Q588 49 570 33T523 3T459 -10Q420 -10 398 3T371
42Q370 45 370 53Q370 65 371 71L370 72Q338 36 298 13T200 -10Q147 -10 103 20T58 115Q58 156 74 262Q78 282 79 292L105 471L43 509L51 552L245 568L270 556L237 288L232 253ZM348 649T308 677T232 740T181 799L279 885L420 674L369 640Q348 649 308 677Z" />
<glyph unicode="&#xfa;" glyph-name="uacute" horiz-adv-x="624" d="M232 253Q219 166 219 138Q219 102 230 87T266 71Q293 71 318 85T363 122L423 564H580L517 110Q513 73 537 73Q545 73 553 77T581 95L595 61Q588 49 570 33T523 3T459 -10Q420 -10 398 3T371
42Q370 45 370 53Q370 65 371 71L370 72Q338 36 298 13T200 -10Q147 -10 103 20T58 115Q58 156 74 262Q78 282 79 292L105 471L43 509L51 552L245 568L270 556L237 288L232 253ZM445 885L538 795Q529 779 490 744T405 676T331 632L287 675L445 885Z" />
<glyph unicode="&#xfb;" glyph-name="ucircumflex" horiz-adv-x="624" d="M232 253Q219 166 219 138Q219 102 230 87T266 71Q293 71 318 85T363 122L423 564H580L517 110Q513 73 537 73Q545 73 553 77T581 95L595 61Q588 49 570 33T523 3T459 -10Q420 -10 398
3T371 42Q370 45 370 53Q370 65 371 71L370 72Q338 36 298 13T200 -10Q147 -10 103 20T58 115Q58 156 74 262Q78 282 79 292L105 471L43 509L51 552L245 568L270 556L237 288L232 253ZM359 862L431 857L532 653L470 628L370 740L217 626L170 658L359 862Z" />
<glyph unicode="&#xfc;" glyph-name="udieresis" horiz-adv-x="624" d="M232 253Q219 166 219 138Q219 102 230 87T266 71Q293 71 318 85T363 122L423 564H580L517 110Q513 73 537 73Q545 73 553 77T581 95L595 61Q588 49 570 33T523 3T459 -10Q420 -10 398 3T371
42Q370 45 370 53Q370 65 371 71L370 72Q338 36 298 13T200 -10Q147 -10 103 20T58 115Q58 156 74 262Q78 282 79 292L105 471L43 509L51 552L245 568L270 556L237 288L232 253ZM225 651T204 675T183 730Q183 772 206 799T268 827Q301 827 320 804T340 749Q340
706 318 679T252 651Q225 651 204 675ZM445 651T425 675T404 730Q404 772 426 799T489 827Q521 827 541 804T561 751Q561 707 539 679T473 651Q445 651 425 675Z" />
<glyph unicode="&#xfd;" glyph-name="yacute" horiz-adv-x="539" d="M57 469T53 475T40 481Q27 481 15 473L0 511Q13 527 49 547T127 568Q170 568 192 551T219 501L280 117L294 20L326 87Q404 255 404 363Q404 386 401 402T390 437Q383 454 380 467T377 501Q377
530 397 549T454 568Q495 568 518 538T542 467Q542 396 524 339T463 195Q426 113 286 -113Q238 -193 188 -223T73 -253Q44 -253 12 -246T-29 -231L8 -133Q19 -144 47 -153T99 -162Q146 -162 184 -133T264 -35H175L61 454Q57 469 53 475ZM407 885L500 795Q491 779
452 744T367 676T293 632L249 675L407 885Z" />
<glyph unicode="&#xfe;" glyph-name="thorn" horiz-adv-x="587" d="M311 568T386 568Q470 568 512 514T554 356Q554 254 514 171T398 39T222 -10Q207 -10 177 -6L173 -69L149 -254H-1L33 -10L125 725L74 746L84 787L259 806L285 792L249 516Q311 568 386 568ZM210
57T235 57Q314 57 352 144T391 356Q391 411 373 447T319 483Q275 483 239 438L190 63Q210 57 235 57Z" />
<glyph unicode="&#xff;" glyph-name="ydieresis" horiz-adv-x="539" d="M57 469T53 475T40 481Q27 481 15 473L0 511Q13 527 49 547T127 568Q170 568 192 551T219 501L280 117L294 20L326 87Q404 255 404 363Q404 386 401 402T390 437Q383 454 380 467T377 501Q377
530 397 549T454 568Q495 568 518 538T542 467Q542 396 524 339T463 195Q426 113 286 -113Q238 -193 188 -223T73 -253Q44 -253 12 -246T-29 -231L8 -133Q19 -144 47 -153T99 -162Q146 -162 184 -133T264 -35H175L61 454Q57 469 53 475ZM187 651T166 675T145 730Q145
772 168 799T230 827Q263 827 282 804T302 749Q302 706 280 679T214 651Q187 651 166 675ZM407 651T387 675T366 730Q366 772 388 799T451 827Q483 827 503 804T523 751Q523 707 501 679T435 651Q407 651 387 675Z" />
<glyph unicode="&#x2013;" glyph-name="endash" horiz-adv-x="760" d="M666 368L648 274H105L122 368H666Z" />
<glyph unicode="&#x2014;" glyph-name="emdash" horiz-adv-x="997" d="M1039 368L1021 274H105L122 368H1039Z" />
<glyph unicode="&#x2018;" glyph-name="quoteleft" horiz-adv-x="343" d="M136 460T113 501T90 600Q90 690 148 755T285 853L317 801L316 791Q277 777 247 731T217 635Q217 603 230 583T266 560L263 540L183 448Q136 460 113 501Z" />
<glyph unicode="&#x2019;" glyph-name="quoteright" horiz-adv-x="343" d="M281 837T304 796T327 697Q327 607 269 542T132 444L100 496L101 506Q140 520 170 566T200 662Q200 694 187 714T151 737L154 757L234 849Q281 837 304 796Z" />
<glyph unicode="&#x201a;" glyph-name="quotesinglbase" horiz-adv-x="333" d="M205 135T228 94T251 -5Q251 -95 193 -160T56 -258L24 -206L25 -196Q64 -182 94 -136T124 -40Q124 -8 111 12T75 35L78 55L158 147Q205 135 228 94Z" />
<glyph unicode="&#x201c;" glyph-name="quotedblleft" horiz-adv-x="577" d="M381 460T358 501T335 600Q335 690 393 755T530 853L562 801L561 791Q522 777 492 731T462 635Q462 603 475 583T511 560L508 540L428 448Q381 460 358 501ZM137 460T114 501T91 600Q91
690 149 755T286 853L318 801L317 791Q278 777 248 731T218 635Q218 603 231 583T267 560L264 540L184 448Q137 460 114 501Z" />
<glyph unicode="&#x201d;" glyph-name="quotedblright" horiz-adv-x="577" d="M533 837T556 796T579 697Q579 607 521 542T384 444L352 496L353 506Q392 520 422 566T452 662Q452 694 439 714T403 737L406 757L486 849Q533 837 556 796ZM290 837T313 796T336 697Q336
607 278 542T141 444L109 496L110 506Q149 520 179 566T209 662Q209 694 196 714T160 737L163 757L243 849Q290 837 313 796Z" />
<glyph unicode="&#x201e;" glyph-name="quotedblbase" horiz-adv-x="577" d="M197 135T220 94T243 -5Q243 -95 185 -160T48 -258L16 -206L17 -196Q56 -182 86 -136T116 -40Q116 -8 103 12T67 35L70 55L150 147Q197 135 220 94ZM430 135T453 94T476 -5Q476 -95
418 -160T281 -258L249 -206L250 -196Q289 -182 319 -136T349 -40Q349 -8 336 12T300 35L303 55L383 147Q430 135 453 94Z" />
<glyph unicode="&#x2022;" glyph-name="bullet" horiz-adv-x="419" d="M154 237T123 268T91 341Q91 376 107 408T155 461T229 482Q272 482 303 452T334 380Q334 322 299 280T196 237Q154 237 123 268Z" />
<glyph unicode="&#x2039;" glyph-name="guilsinglleft" horiz-adv-x="439" d="M419 540L242 297L343 61L269 35L67 268L80 338L354 565L419 540Z" />
<glyph unicode="&#x203a;" glyph-name="guilsinglright" horiz-adv-x="438" d="M381 338L368 258L94 35L30 61L205 297L105 540L178 565L381 338Z" />
</font>
</defs>
</svg>
