<?xml version="1.0" standalone="no"?>
<!DOCTYPE svg PUBLIC "-//W3C//DTD SVG 1.1//EN" "http://www.w3.org/Graphics/SVG/1.1/DTD/svg11.dtd">
<svg xmlns="http://www.w3.org/2000/svg">
<defs >
<font id="RobotoSlab" horiz-adv-x="1239" ><font-face
    font-family="Roboto Slab Light"
    units-per-em="2048"
    panose-1="0 0 0 0 0 0 0 0 0 0"
    ascent="2146"
    descent="-555"
    alphabetic="0" />
<glyph unicode=" " glyph-name="space" horiz-adv-x="499" />
<glyph unicode="!" glyph-name="exclam" horiz-adv-x="458" d="M154 478V1456H274V478H154ZM143 0V166H285V0H143Z" />
<glyph unicode="&quot;" glyph-name="quotedbl" horiz-adv-x="680" d="M166 1091L174 1374V1560H277V1366L238 1091H166ZM407 1091L415 1374V1560H518V1366L479 1091H407Z" />
<glyph unicode="#" glyph-name="numbersign" horiz-adv-x="1246" d="M241 0L317 410H63V503H336L418 945H139V1040H437L515 1456H615L536 1040H850L929 1456H1029L950 1040H1179V945H932L849 503H1104V410H831L754 0H654L731 410H417L340 0H241ZM436 503H749L832
945H518L436 503Z" />
<glyph unicode="$" glyph-name="dollar" horiz-adv-x="1097" d="M497 -208V-19Q377 -11 282 37T134 179T83 413L85 418H197Q197 300 243 226T368 118T542 84Q640 84 712 119T823 217T862 359Q862 433 832 488T730 587T536 675Q397 719 307 774T172 906T128 1095Q128
1258 228 1359T500 1474V1677H603V1474Q777 1457 874 1343T969 1031L962 1029H853Q853 1181 773 1276T549 1372Q401 1372 325 1295T248 1098Q248 1021 276 966T376 867T577 780Q715 733 805 679T938 548T982 361Q982 195 879 96T599 -19V-208H497Z" />
<glyph unicode="%" glyph-name="percent" horiz-adv-x="1458" d="M404 121L329 169L1040 1307L1115 1259L404 121ZM1096 -21Q1010 -21 946 19T845 127T809 279V357Q809 440 845 508T945 616T1094 657Q1179 657 1243 617T1344 509T1380 357V279Q1380 195 1344 127T1244
19T1096 -21ZM1096 65Q1185 65 1234 127T1283 279V357Q1283 448 1234 509T1094 571Q1004 571 955 510T906 357V279Q906 190 955 128T1096 65ZM364 800Q278 800 214 840T113 947T77 1099V1176Q77 1260 112 1328T212 1437T362 1477Q447 1477 511 1437T611 1329T647
1176V1099Q647 1015 612 948T512 840T364 800ZM364 886Q453 886 501 948T550 1099V1176Q550 1264 501 1327T362 1391Q272 1391 223 1327T174 1176V1099Q174 1011 223 949T364 886Z" />
<glyph unicode="&amp;" glyph-name="ampersand" horiz-adv-x="1270" d="M526 -21Q387 -21 286 27T130 164T74 370Q74 487 141 581T337 772Q345 779 353 785T369 797Q289 898 251 979T212 1148Q212 1253 252 1326T366 1438T545 1477Q641 1477 711 1440T819 1339T858
1193Q858 1102 813 1038T683 909L524 785L936 305Q984 376 1011 464T1038 651H1149Q1149 523 1113 416T1007 222L1192 5L1190 0H1052L929 142Q851 72 752 26T526 -21ZM526 79Q619 79 705 116T862 222L435 717L389 682Q273 587 234 512T194 370Q194 246 279 163T526
79ZM460 860L636 994Q695 1038 719 1087T744 1193Q744 1272 692 1324T545 1376Q443 1376 388 1311T332 1150Q332 1083 363 1011T460 860Z" />
<glyph unicode="&apos;" glyph-name="quotesingle" horiz-adv-x="439" d="M166 1091L174 1374V1560H277V1366L238 1091H166Z" />
<glyph unicode="(" glyph-name="parenleft" horiz-adv-x="637" d="M563 -463Q476 -413 396 -315T252 -81T151 221T114 573V588Q114 770 151 936T252 1239T396 1477T563 1625H569L595 1552Q522 1499 457 1406T342 1185T263 908T234 591V571Q234 405 262 255T341
-23T456 -245T595 -394L569 -463H563Z" />
<glyph unicode=")" glyph-name="parenright" horiz-adv-x="629" d="M37 -463L11 -394Q83 -342 148 -248T263 -26T342 253T372 571V591Q372 755 342 906T262 1185T147 1408T11 1556L37 1625H43Q128 1577 208 1477T353 1240T454 936T492 588V573Q492 387 455 221T354
-81T210 -315T43 -463H37Z" />
<glyph unicode="*" glyph-name="asterisk" horiz-adv-x="953" d="M684 638L470 944L266 640L181 700L398 1001L66 1109L98 1209L430 1086L426 1456H530L522 1083L847 1210L880 1110L546 995L769 700L684 638Z" />
<glyph unicode="+" glyph-name="plus" horiz-adv-x="1145" d="M507 146V629H73V739H507V1206H627V739H1071V629H627V146H507Z" />
<glyph unicode="," glyph-name="comma" horiz-adv-x="393" d="M131 -281L60 -229Q107 -163 129 -98T152 45V188H272V48Q272 -45 235 -132T131 -281Z" />
<glyph unicode="-" glyph-name="hyphen" horiz-adv-x="793" d="M154 571V671H633V571H154Z" />
<glyph unicode="." glyph-name="period" horiz-adv-x="467" d="M145 0V163H282V0H145Z" />
<glyph unicode="/" glyph-name="slash" horiz-adv-x="798" d="M0 -125L608 1456H716L109 -125H0Z" />
<glyph unicode="0" glyph-name="zero" horiz-adv-x="1158" d="M575 -21Q362 -21 242 131T121 565V890Q121 1172 240 1324T573 1477Q786 1477 906 1325T1026 890V565Q1026 283 907 131T575 -21ZM575 79Q737 79 821 201T906 548V910Q906 1134 821 1255T573 1376Q411
1376 326 1255T241 910V548Q241 325 327 202T575 79Z" />
<glyph unicode="1" glyph-name="one" horiz-adv-x="832" d="M114 0V87L376 100V1332L88 1289V1373L496 1460V100L757 87V0H114Z" />
<glyph unicode="2" glyph-name="two" horiz-adv-x="1116" d="M102 0V91L579 632Q667 733 720 809T796 950T820 1076Q820 1212 743 1294T517 1376Q362 1376 276 1284T190 1037H78L76 1043Q73 1165 126 1263T281 1419T520 1477Q649 1477 743 1428T889 1290T941 1080Q941
999 908 919T810 750T655 560L254 105L256 100H893L900 306H1006V0H102Z" />
<glyph unicode="3" glyph-name="three" horiz-adv-x="1102" d="M535 -21Q407 -21 301 28T134 168T75 389L77 395H189Q189 302 233 231T355 119T535 79Q689 79 776 160T863 391Q863 545 772 618T513 692H374V793H513Q619 793 690 829T798 929T835 1077Q835 1214
758 1295T530 1376Q436 1376 364 1339T251 1234T210 1075H98L96 1081Q93 1195 148 1284T303 1425T530 1477Q724 1477 839 1370T955 1073Q955 970 891 880T710 746Q847 707 915 615T983 395Q983 265 926 172T768 29T535 -21Z" />
<glyph unicode="4" glyph-name="four" horiz-adv-x="1178" d="M582 0V87L745 100V369H63V436L734 1456H865V469H1093V369H865V100L1028 87V0H582ZM205 469H745V1285L739 1287L688 1193L205 469Z" />
<glyph unicode="5" glyph-name="five" horiz-adv-x="1070" d="M512 -21Q391 -21 296 24T148 157T97 377L99 383H206Q206 236 289 158T512 79Q674 79 754 177T835 462Q835 626 754 724T529 823Q389 823 316 778T210 643L112 660L193 1456H924V1220H827L818 1347H296L242
825Q278 858 318 881T412 918T541 933Q665 935 758 878T904 715T956 464Q956 316 907 208T759 39T512 -21Z" />
<glyph unicode="6" glyph-name="six" horiz-adv-x="1124" d="M582 -21Q447 -21 343 47T180 246T121 562V829Q121 1040 184 1184T360 1403T616 1477Q691 1477 764 1461T893 1412L864 1316Q807 1347 751 1361T616 1376Q451 1376 349 1251T244 870L246 774Q297 857
390 909T600 962Q730 962 825 901T972 729T1023 474Q1023 330 968 219T813 43T582 -21ZM582 79Q679 79 751 131T863 274T903 474Q903 649 818 757T576 865Q490 865 418 831T299 738T241 608V552Q241 326 336 203T582 79Z" />
<glyph unicode="7" glyph-name="seven" horiz-adv-x="1115" d="M372 0L383 121Q411 369 479 584T654 989T907 1355H190L183 1150H76V1456H1031V1355Q912 1216 823 1078T670 792T566 479T503 121L492 0H372Z" />
<glyph unicode="8" glyph-name="eight" horiz-adv-x="1127" d="M561 -21Q421 -21 316 26T151 164T92 386Q92 514 171 610T385 747Q269 786 201 874T133 1081Q133 1207 187 1295T337 1430T559 1477Q684 1477 780 1430T932 1295T988 1081Q988 963 918 875T733 747Q866
706 947 610T1029 386Q1029 255 969 164T804 26T561 -21ZM561 79Q662 79 740 116T864 221T909 385Q909 477 863 547T738 657T559 697Q458 697 380 658T257 548T212 385Q212 241 309 160T561 79ZM561 797Q650 797 719 832T828 932T868 1082Q868 1167 827 1233T716
1338T559 1376Q424 1376 339 1296T253 1082Q253 952 339 875T561 797Z" />
<glyph unicode="9" glyph-name="nine" horiz-adv-x="1138" d="M506 -21Q429 -21 350 -6T200 40L222 140Q291 108 356 94T506 79Q672 79 767 203T864 584L862 653Q813 563 725 513T526 463Q393 463 294 525T139 700T84 958Q84 1105 142 1222T300 1408T527 1477Q669
1477 773 1416T934 1230T992 918V612Q992 400 932 260T763 49T506 -21ZM526 563Q656 563 743 630T867 796V927Q867 1154 778 1265T532 1376Q438 1376 365 1320T250 1169T208 958Q208 845 247 756T357 615T526 563Z" />
<glyph unicode=":" glyph-name="colon" horiz-adv-x="389" d="M386 0V163H523V0H386ZM130 917V1080H267V917H130Z" />
<glyph unicode=";" glyph-name="semicolon" horiz-adv-x="392" d="M135 919V1082H272V919H135ZM136 -281L65 -229Q112 -163 134 -98T157 45V188H277V48Q277 -45 240 -132T136 -281Z" />
<glyph unicode="&lt;" glyph-name="less" horiz-adv-x="1022" d="M903 123L76 502V597L903 975V851L289 578L186 550V544L289 516L903 247V123Z" />
<glyph unicode="=" glyph-name="equal" horiz-adv-x="1127" d="M147 834V939H981V834H147ZM147 423V527H981V423H147Z" />
<glyph unicode="&gt;" glyph-name="greater" horiz-adv-x="1056" d="M125 114V236L756 511L859 539V545L756 574L125 845V967L970 589V493L125 114Z" />
<glyph unicode="?" glyph-name="question" horiz-adv-x="925" d="M361 405Q361 470 365 512T383 586T424 649T498 723Q574 794 619 851T684 968T704 1102Q704 1230 636 1301T443 1372Q324 1372 253 1304T180 1116H68L65 1122Q64 1232 112 1312T246 1434T443 1477Q622
1477 723 1376T824 1104Q824 1013 796 940T712 797T569 646Q530 609 511 578T487 508T481 405H361ZM358 0V153H497V0H358Z" />
<glyph unicode="@" glyph-name="at" horiz-adv-x="1809" d="M860 -453Q609 -453 432 -340T164 -19T86 478Q98 761 208 973T508 1302T948 1420Q1206 1420 1381 1311T1641 999T1715 513Q1709 369 1659 248T1516 53T1285 -21Q1207 -21 1155 31T1086 176Q981 -21 774
-21Q643 -21 575 98T526 416Q541 586 600 712T750 907T953 977Q1046 977 1103 951T1230 869V853L1181 293Q1175 205 1191 155T1238 85T1306 64Q1448 64 1531 189T1623 513Q1642 903 1472 1119T944 1336Q724 1336 558 1229T294 928T184 478Q171 224 247 34T480 -263T865
-369Q959 -369 1047 -348T1197 -291L1228 -364Q1163 -405 1060 -429T860 -453ZM801 76Q888 76 959 123T1081 296Q1081 305 1081 314T1083 335L1127 831Q1096 858 1057 872T969 887Q835 887 748 769T636 416Q621 261 663 169T801 76Z" />
<glyph unicode="A" glyph-name="A" horiz-adv-x="1500" d="M62 0V87L169 94L686 1456H800L1313 94L1420 87V0H1061V87L1189 96L1068 425H415L293 96L421 87V0H62ZM454 530H1029L766 1245L746 1304H740L719 1245L454 530Z" />
<glyph unicode="B" glyph-name="B" horiz-adv-x="1282" d="M76 0V87L239 100V1355L76 1368V1456H239H659Q886 1456 1013 1361T1140 1073Q1140 959 1076 876T898 763Q988 748 1056 697T1163 571T1202 406Q1202 210 1076 105T738 0H76ZM359 100H738Q899 100 990
180T1082 404Q1082 491 1045 558T935 664T757 702H359V100ZM359 803H694Q850 803 934 873T1019 1077Q1019 1216 928 1285T659 1355H359V803Z" />
<glyph unicode="C" glyph-name="C" horiz-adv-x="1321" d="M769 -21Q553 -21 406 73T183 335T107 718V737Q107 955 185 1121T408 1382T746 1477Q896 1477 1004 1435T1197 1320V1037H1095L1085 1269Q1041 1302 993 1325T885 1360T746 1373Q587 1373 471 1293T291
1070T227 739V718Q227 524 291 381T477 160T770 82Q862 82 947 105T1092 166L1102 386H1203V96Q1114 38 1003 9T769 -21Z" />
<glyph unicode="D" glyph-name="D" horiz-adv-x="1372" d="M76 0V87L239 100V1355L76 1368V1456H239H639Q825 1456 966 1364T1187 1110T1268 740V716Q1268 509 1189 348T970 93T644 0H76ZM359 100H639Q791 100 905 181T1083 402T1148 716V742Q1148 918 1084 1056T905
1275T639 1355H359V100Z" />
<glyph unicode="E" glyph-name="E" horiz-adv-x="1287" d="M76 0V87L239 100V1355L76 1368V1456H1122V1137H1020L1010 1357H359V806H946V706H359V97H1041L1051 319H1152V0H76Z" />
<glyph unicode="F" glyph-name="F" horiz-adv-x="1251" d="M76 0V87L239 100V1355L76 1368V1456H1154V1137H1052L1042 1356H359V784H952V683H359V100L522 87V0H76Z" />
<glyph unicode="G" glyph-name="G" horiz-adv-x="1384" d="M755 -21Q555 -21 410 72T186 332T107 718V750Q107 966 187 1129T409 1385T729 1477Q890 1477 1002 1437T1202 1328V1057H1099L1089 1275Q1026 1321 944 1347T738 1373Q593 1373 478 1295T295 1077T227
752V718Q227 529 289 386T469 162T754 82Q872 82 962 108T1118 170V556L819 560V657H1238V123Q1160 66 1043 23T755 -21Z" />
<glyph unicode="H" glyph-name="H" horiz-adv-x="1539" d="M76 0V87L239 100V1355L76 1368V1456H522V1368L359 1355V772H1181V1355L1018 1368V1456H1181H1301H1464V1368L1301 1355V100L1464 87V0H1018V87L1181 100V671H359V100L522 87V0H76Z" />
<glyph unicode="I" glyph-name="I" horiz-adv-x="597" d="M76 0V87L239 100V1355L76 1368V1456H522V1368L359 1355V100L522 87V0H76Z" />
<glyph unicode="J" glyph-name="J" horiz-adv-x="1152" d="M486 -21Q358 -21 261 26T109 169T52 404L54 410H166Q168 247 249 164T484 81Q578 81 645 122T749 240T786 418V1355L597 1367V1456H1069V1368L906 1355V418Q906 285 856 187T711 34T486 -21Z" />
<glyph unicode="K" glyph-name="K" horiz-adv-x="1440" d="M342 405L283 495L1055 1357L1056 1362L915 1368V1456H1325V1368L1200 1357L342 405ZM76 0V87L239 100V1355L76 1368V1456H522V1368L359 1355V100L522 87V0H76ZM955 0V87L1098 94L1099 97L621 755L699
843L1248 99L1374 87V0H955Z" />
<glyph unicode="L" glyph-name="L" horiz-adv-x="1184" d="M76 0V87L239 100V1355L76 1368V1456H239H359H522V1368L359 1355V99H970L981 334H1079V0H76Z" />
<glyph unicode="M" glyph-name="M" horiz-adv-x="1897" d="M82 0V87L245 100V1355L82 1368V1456H245H407L945 208H951L1482 1456H1815V1368L1652 1355V100L1815 87V0H1369V87L1536 100V721V1281L1531 1282L991 24H907L361 1278L355 1276L359 735V100L528 87V0H82Z" />
<glyph unicode="N" glyph-name="N" horiz-adv-x="1552" d="M77 0V87L240 100V1355L77 1368V1456H240H361L1193 204L1199 206V1355L1029 1368V1456H1312H1475V1368L1312 1355V0H1200L359 1257L353 1255V100L523 87V0H77Z" />
<glyph unicode="O" glyph-name="O" horiz-adv-x="1425" d="M710 -21Q572 -21 460 32T268 183T145 416T102 718V737Q102 903 144 1038T267 1272T459 1424T709 1477Q850 1477 962 1424T1154 1273T1275 1039T1317 737V718Q1317 552 1276 417T1155 183T964 32T710
-21ZM710 84Q868 84 976 163T1141 385T1197 718V739Q1197 929 1141 1071T975 1292T709 1372Q558 1372 449 1293T282 1071T223 739V718Q223 528 281 385T449 163T710 84Z" />
<glyph unicode="P" glyph-name="P" horiz-adv-x="1274" d="M76 0V87L239 100V1355L76 1368V1456H239H690Q844 1456 951 1403T1114 1255T1170 1031Q1170 902 1114 807T951 659T690 606H359V100L522 87V0H76ZM359 706H690Q870 706 960 798T1050 1029Q1050 1170 961
1262T690 1355H359V706Z" />
<glyph unicode="Q" glyph-name="Q" horiz-adv-x="1431" d="M1275 -224L936 21Q883 0 826 -10T710 -21Q572 -21 460 32T268 183T145 417T102 718V737Q102 903 144 1038T267 1272T458 1424T708 1477Q849 1477 961 1424T1153 1273T1274 1039T1316 737V718Q1316 502
1250 336T1044 79L1345 -134L1275 -224ZM710 84Q866 84 974 163T1139 385T1196 718V739Q1196 929 1140 1071T974 1292T708 1372Q558 1372 449 1293T282 1071T223 739V718Q223 528 281 385T449 163T710 84Z" />
<glyph unicode="R" glyph-name="R" horiz-adv-x="1374" d="M76 -1V87L239 100V1355L76 1368V1455H690Q846 1455 954 1409T1118 1275T1175 1058Q1175 933 1117 847T953 717T705 671L359 668V100L522 87V-1H76ZM1055 -1L742 722L862 723L1140 96L1259 88V-1H1055ZM359
768H678Q873 768 964 848T1055 1059Q1055 1200 964 1277T690 1355H359V768Z" />
<glyph unicode="S" glyph-name="S" horiz-adv-x="1194" d="M597 -21Q472 -21 348 17T107 135V417H207L222 190Q310 135 405 108T597 81Q712 81 797 116T930 215T978 362Q978 442 940 502T815 609T580 693Q421 734 321 789T173 921T125 1106Q125 1215 183 1298T345
1429T589 1477Q736 1477 851 1433T1047 1320V1060H948L933 1266Q870 1317 784 1346T589 1375Q482 1375 405 1340T287 1244T245 1108Q245 1035 278 980T392 882T619 800Q856 739 977 636T1098 364Q1098 248 1035 162T858 27T597 -21Z" />
<glyph unicode="T" glyph-name="T" horiz-adv-x="1337" d="M444 0V87L607 100V1358H198L185 1136H87V1456H1246V1136H1149L1135 1358H727V100L890 87V0H444Z" />
<glyph unicode="U" glyph-name="U" horiz-adv-x="1478" d="M737 -21Q587 -21 473 36T293 203T228 469V1355L65 1368V1456H511V1368L348 1355V469Q348 345 397 259T535 127T738 81Q853 81 942 126T1081 257T1131 469V1355L968 1368V1456H1414V1368L1251 1355V469Q1251
310 1187 201T1006 36T737 -21Z" />
<glyph unicode="V" glyph-name="V" horiz-adv-x="1468" d="M678 0L171 1361L60 1368V1456H444V1368L300 1359L703 253L733 157H739L769 253L1178 1359L1027 1368V1456H1411V1368L1299 1361L792 0H678Z" />
<glyph unicode="W" glyph-name="W" horiz-adv-x="2060" d="M525 0L175 1361L64 1368V1456H454V1368L298 1358L531 411L585 201H591L652 410L983 1456H1095L1427 410L1486 196H1492L1551 410L1781 1358L1620 1368V1456H2006V1368L1899 1361L1556 0H1437L1086 1119L1041
1265H1035L992 1119L639 0H525Z" />
<glyph unicode="X" glyph-name="X" horiz-adv-x="1451" d="M68 0V87L188 97L658 741L214 1358L93 1368V1456H498V1368L346 1362L727 823L1101 1362L948 1368V1456H1354V1368L1231 1358L798 741L1262 97L1383 87V0H976V87L1130 93L726 660L323 93L474 87V0H68Z" />
<glyph unicode="Y" glyph-name="Y" horiz-adv-x="1444" d="M500 0V87L663 100V542L179 1360L60 1368V1456H467V1368L314 1360L699 689L722 644L723 646L747 689L1139 1360L984 1368V1456H1386V1368L1263 1360L783 549V100L946 87V0H500Z" />
<glyph unicode="Z" glyph-name="Z" horiz-adv-x="1209" d="M91 0V92L941 1356H230L222 1140H120V1456H1086V1369L234 100H1008L1017 324H1118V0H91Z" />
<glyph unicode="[" glyph-name="bracketleft" horiz-adv-x="548" d="M157 -312V1664H487V1563H277V-211H487V-312H157Z" />
<glyph unicode="\" glyph-name="backslash" horiz-adv-x="810" d="M644 -125L36 1456H153L761 -125H644Z" />
<glyph unicode="]" glyph-name="bracketright" horiz-adv-x="527" d="M23 -312V-211H233V1563H23V1664H353V-312H23Z" />
<glyph unicode="^" glyph-name="asciicircum" horiz-adv-x="845" d="M71 729L370 1456H460L758 729H642L445 1215L416 1308H410L380 1215L187 729H71Z" />
<glyph unicode="_" glyph-name="underscore" horiz-adv-x="1150" d="M119 -100V0H1000V-100H119Z" />
<glyph unicode="`" glyph-name="grave" horiz-adv-x="404" d="M364 1310L359 1307H271L40 1555L42 1560H183L364 1310Z" />
<glyph unicode="a" glyph-name="a" horiz-adv-x="1123" d="M420 -21Q266 -21 179 61T92 283Q92 383 150 458T314 576T567 618H791V742Q791 859 722 930T512 1002Q433 1002 371 977T262 912L252 747H153V973Q223 1033 312 1067T514 1102Q705 1102 808 1006T911
740V218Q911 186 913 155T920 92L1049 87V0H813Q801 59 797 95T791 176Q732 89 635 34T420 -21ZM434 84Q545 84 644 142T791 298V526H566Q400 526 306 455T212 279Q212 192 272 138T434 84Z" />
<glyph unicode="b" glyph-name="b" horiz-adv-x="1114" d="M611 -21Q492 -21 406 26T266 157L254 0H151V1459L-12 1472V1560H271V917Q324 1004 408 1053T609 1102Q739 1102 832 1032T974 833T1024 532V511Q1024 349 975 230T833 45T611 -21ZM588 82Q744 82 823
198T903 511V532Q903 671 868 776T762 940T586 999Q459 999 384 936T271 775V287Q309 193 389 138T588 82Z" />
<glyph unicode="c" glyph-name="c" horiz-adv-x="1075" d="M551 -21Q416 -21 313 47T151 237T92 520V562Q92 720 148 842T308 1033T550 1102Q676 1102 774 1055T938 932L940 687H840L824 889Q774 942 707 971T553 1001Q451 1001 374 944T255 788T212 562V520Q212
388 254 289T372 134T552 79Q673 79 754 142T852 330H959L961 324Q952 222 901 144T761 23T551 -21Z" />
<glyph unicode="d" glyph-name="d" horiz-adv-x="1211" d="M505 -21Q376 -21 283 45T141 230T92 511V532Q92 705 141 833T283 1031T507 1102Q620 1102 703 1054T841 920V1459L678 1472V1560H841H961V100L1124 87V0H854L845 153Q792 71 706 25T505 -21ZM527 82Q644
82 722 135T841 279V784Q802 878 727 938T529 999Q424 999 354 940T249 776T213 532V511Q213 315 291 199T527 82Z" />
<glyph unicode="e" glyph-name="e" horiz-adv-x="1072" d="M565 -21Q426 -21 320 46T154 233T94 509V564Q94 719 154 840T316 1032T545 1102Q678 1102 772 1045T917 885T968 641V539H218L216 495Q217 375 260 281T382 133T565 79Q667 79 744 111T881 200L932 118Q869
58 780 19T565 -21ZM226 639H848V669Q848 764 812 839T708 958T545 1001Q459 1001 390 955T278 828T224 645L226 639Z" />
<glyph unicode="f" glyph-name="f" horiz-adv-x="723" d="M94 0V87L257 100V985H77V1082H257V1241Q257 1403 338 1492T567 1581Q601 1581 636 1577T708 1562L692 1465Q667 1471 640 1474T579 1478Q481 1478 429 1416T377 1241V1082H640V985H377V100L550 87V0H94Z" />
<glyph unicode="g" glyph-name="g" horiz-adv-x="1156" d="M536 -437Q457 -437 369 -418T215 -367L247 -267Q311 -298 382 -315T534 -332Q688 -332 765 -241T843 14V146Q789 67 705 23T508 -21Q378 -21 285 45T142 230T92 511V532Q92 705 142 833T285 1031T510
1102Q626 1102 711 1052T849 912L862 1082H963V14Q963 -125 913 -226T766 -382T536 -437ZM530 82Q648 82 725 136T843 284V779Q805 874 731 936T532 999Q427 999 356 940T249 775T213 532V511Q213 315 292 199T530 82ZM939 979L900 1082H1102V995L939 979Z" />
<glyph unicode="h" glyph-name="h" horiz-adv-x="1295" d="M56 0V87L219 100V1459L56 1472V1560H339V893Q392 992 481 1047T692 1102Q863 1102 954 997T1046 667V100L1209 87V0H763V87L926 100V669Q926 846 857 922T665 999Q533 999 453 925T339 733V100L502 87V0H56Z" />
<glyph unicode="i" glyph-name="i" horiz-adv-x="629" d="M79 0V87L242 100V981L79 994V1082H362V100L525 87V0H79ZM228 1387V1560H362V1387H228Z" />
<glyph unicode="j" glyph-name="j" horiz-adv-x="545" d="M84 -437Q53 -437 27 -432T-28 -418L-15 -321Q1 -326 31 -331T84 -336Q170 -336 218 -271T267 -89V981L104 994V1082H387V-89Q387 -256 307 -346T84 -437ZM250 1387V1560H384V1387H250Z" />
<glyph unicode="k" glyph-name="k" horiz-adv-x="1215" d="M63 0V87L226 100V1459L63 1472V1560H346V100L509 87V0H63ZM760 0V87L879 93L878 98L519 583L587 674L1023 98L1158 87V0H760ZM334 331L291 431L824 982L825 988L707 994V1082H1095V994L965 982L334 331Z" />
<glyph unicode="l" glyph-name="l" horiz-adv-x="614" d="M74 0V87L237 100V1459L74 1472V1560H357V100L520 87V0H74Z" />
<glyph unicode="m" glyph-name="m" horiz-adv-x="1979" d="M82 0V87L245 100V981L82 994V1082H352L362 897Q412 994 499 1048T708 1102Q833 1102 916 1041T1035 852Q1081 969 1172 1036T1394 1103Q1567 1103 1661 988T1756 631V101L1919 88V1H1472V88L1635 101V633Q1635
834 1565 917T1369 1000Q1228 1000 1152 911T1061 684V100L1224 87V0H777V87L940 100V633Q940 830 869 914T672 999Q540 999 467 929T366 743V100L529 87V0H82Z" />
<glyph unicode="n" glyph-name="n" horiz-adv-x="1331" d="M82 0V87L245 100V981L82 994V1082H351L361 888Q413 990 501 1046T711 1102Q887 1102 979 995T1071 658V100L1234 87V0H788V87L951 100V657Q951 845 882 922T685 999Q551 999 473 924T365 728V100L528 87V0H82Z" />
<glyph unicode="o" glyph-name="o" horiz-adv-x="1141" d="M572 -21Q426 -21 319 48T152 241T92 524V557Q92 716 151 839T318 1032T570 1102Q715 1102 822 1032T989 840T1049 557V524Q1049 364 990 241T823 49T572 -21ZM572 79Q683 79 763 138T886 298T929 524V557Q929
681 886 782T763 942T570 1001Q458 1001 378 942T255 782T212 557V524Q212 398 254 298T377 138T572 79Z" />
<glyph unicode="p" glyph-name="p" horiz-adv-x="1178" d="M55 -416V-328L214 -315V981L51 994V1082H314L329 917Q383 1005 468 1053T670 1102Q800 1102 893 1032T1036 833T1086 532V511Q1086 349 1037 230T895 45T673 -21Q558 -21 473 22T334 142V-315L501 -328V-416H55ZM645
79Q802 79 883 197T965 511V532Q965 670 928 775T820 939T643 999Q520 999 446 939T334 787V271Q372 182 450 131T645 79Z" />
<glyph unicode="q" glyph-name="q" horiz-adv-x="1137" d="M673 -416V-328L836 -315V139Q783 63 699 21T505 -21Q376 -21 283 45T141 230T92 511V532Q92 705 141 833T283 1031T507 1102Q619 1102 703 1055T841 922L851 1082H956V-315L1114 -328V-416H673ZM527
79Q642 79 719 131T836 273V789Q797 879 723 940T529 1001Q424 1001 354 942T249 777T213 532V511Q213 315 291 197T527 79Z" />
<glyph unicode="r" glyph-name="r" horiz-adv-x="837" d="M81 0V87L244 100V981L81 994V1082H349L362 917L363 888Q409 989 488 1045T677 1102Q704 1102 734 1098T779 1088L764 978L653 985Q538 988 465 919T364 736V100L527 87V0H81Z" />
<glyph unicode="s" glyph-name="s" horiz-adv-x="1015" d="M499 -21Q385 -21 288 9T104 98L103 320H201L218 161Q276 116 347 96T499 76Q635 76 706 135T777 275Q777 351 714 409T488 504Q294 546 208 616T121 811Q121 893 167 959T297 1063T496 1102Q615 1102
703 1068T854 975L859 753H761L747 913Q702 956 642 979T496 1003Q374 1003 308 947T242 815Q242 766 262 730T341 664T512 609Q715 563 806 485T897 281Q897 149 795 64T499 -21Z" />
<glyph unicode="t" glyph-name="t" horiz-adv-x="724" d="M473 -19Q359 -19 296 51T233 279V985H46V1082H233V1360H353V1082H605V985H353V279Q353 171 391 124T494 76Q528 76 561 80T629 90L647 4Q611 -7 565 -13T473 -19Z" />
<glyph unicode="u" glyph-name="u" horiz-adv-x="1222" d="M541 -21Q371 -21 277 95T182 455V981L48 994V1082H182H302V453Q302 255 367 169T555 82Q694 82 772 146T879 320V981L725 994V1082H879H1000V100L1145 87V0H894L884 178Q833 83 748 31T541 -21Z" />
<glyph unicode="v" glyph-name="v" horiz-adv-x="1184" d="M548 0L155 987L40 994V1082H421V994L279 985L559 271L599 152H605L648 271L919 985L775 994V1082H1156V994L1039 987L656 0H548Z" />
<glyph unicode="w" glyph-name="w" horiz-adv-x="1804" d="M476 0L174 988L52 994V1082H437V994L296 984L482 350L532 172H538L596 350L843 1082H949L1195 351L1257 161L1263 162L1321 351L1507 985L1365 994V1082H1746V994L1624 986L1323 0H1207L954 738L899
916L893 915L839 738L584 0H476Z" />
<glyph unicode="x" glyph-name="x" horiz-adv-x="1197" d="M64 0V87L187 98L530 551L201 984L84 994V1082H450V994L334 989L602 632L866 989L746 994V1082H1109V994L991 984L672 553L1022 98L1141 87V0H759V87L886 92L600 470L317 92L438 87V0H64Z" />
<glyph unicode="y" glyph-name="y" horiz-adv-x="1188" d="M295 -437Q274 -437 245 -433T200 -424L214 -325Q228 -327 253 -329T291 -332Q369 -332 415 -281T499 -134L555 13L158 987L41 994V1082H422V994L285 985L563 287L608 164H614L923 985L782 994V1082H1160V994L1045
987L601 -174Q571 -250 533 -310T438 -403T295 -437Z" />
<glyph unicode="z" glyph-name="z" horiz-adv-x="1056" d="M105 0V87L760 982H221L209 770H112V1082H912V994L254 98H853L865 311H962V0H105Z" />
<glyph unicode="{" glyph-name="braceleft" horiz-adv-x="697" d="M632 -405Q448 -350 371 -232T294 57V284Q294 407 238 475T63 543V646Q181 646 237 713T294 904V1132Q294 1303 371 1422T632 1597L658 1519Q530 1478 472 1377T414 1132V904Q414 791 367 710T222
594Q319 559 366 478T414 284V57Q414 -86 473 -184T661 -326L632 -405Z" />
<glyph unicode="|" glyph-name="bar" horiz-adv-x="426" d="M150 -270V1456H252V-270H150Z" />
<glyph unicode="}" glyph-name="braceright" horiz-adv-x="696" d="M56 -405L27 -326Q154 -283 213 -185T273 57V284Q273 397 321 479T472 594Q370 627 322 708T273 904V1132Q273 1276 215 1377T30 1519L56 1597Q238 1542 315 1423T393 1132V904Q393 781 449 714T624
646V543Q506 543 450 475T393 284V57Q393 -113 316 -231T56 -405Z" />
<glyph unicode="~" glyph-name="asciitilde" horiz-adv-x="1376" d="M952 424Q864 424 792 459T631 574Q567 628 512 655T402 682Q323 682 271 621T218 459L121 474Q121 562 157 633T256 745T402 787Q489 787 562 750T725 637Q788 580 841 555T952 529Q1029 529
1083 593T1137 755L1235 740Q1235 654 1198 582T1097 467T952 424Z" />
<glyph unicode="&#xa1;" glyph-name="exclamdown" horiz-adv-x="458" d="M184 604H304V-374H184V604ZM173 1082H315V916H173V1082Z" />
<glyph unicode="&#xa2;" glyph-name="cent" horiz-adv-x="1088" d="M526 -245V-15Q397 -2 308 69T171 256T124 520V562Q124 709 171 824T308 1011T526 1096V1318H646V1099Q751 1088 838 1043T983 927L987 691H886L866 884Q819 937 747 969T585 1001Q469 1001 394
945T281 789T244 562V520Q244 391 280 292T393 136T586 79Q665 79 734 110T845 198T887 337H994L996 331Q999 241 952 167T825 45T646 -17V-245H526Z" />
<glyph unicode="&#xa3;" glyph-name="sterling" horiz-adv-x="1164" d="M132 0V100H142Q188 110 219 167T265 304T281 466L274 643H68V744H270L260 1040Q260 1244 366 1360T650 1477Q836 1477 930 1374T1021 1095L1019 1090H907Q907 1239 838 1307T650 1376Q525
1376 453 1288T380 1040L390 744H841V643H394L401 466Q401 357 375 260T299 100H960L967 306H1073V0H132Z" />
<glyph unicode="&#xa4;" glyph-name="currency" horiz-adv-x="1461" d="M1273 -27L1115 134Q1035 60 935 20T725 -20Q613 -20 514 19T334 132L179 -26L94 59L254 221Q194 302 162 400T129 608Q129 721 163 822T263 1006L94 1179L179 1264L346 1093Q424 1160 521
1197T725 1234Q831 1234 927 1197T1103 1091L1273 1265L1360 1179L1187 1003Q1250 921 1284 820T1319 608Q1319 500 1287 403T1196 225L1360 59L1273 -27ZM725 89Q824 89 910 129T1063 241T1167 407T1205 608Q1205 715 1168 808T1064 973T911 1084T725 1124Q625
1124 538 1084T384 973T280 809T243 608Q243 501 280 407T383 242T537 130T725 89Z" />
<glyph unicode="&#xa5;" glyph-name="yen" horiz-adv-x="1383" d="M468 0V87L631 100V326H216V412H631V618H216V705H586L188 1359L59 1368V1456H433V1368L323 1361L669 782L692 736L696 739L717 782L1062 1361L953 1368V1456H1327V1368L1198 1359L799 705H1171V618H751V412H1171V326H751V100L914
87V0H468Z" />
<glyph unicode="&#xa6;" glyph-name="brokenbar" horiz-adv-x="462" d="M150 -270V500H270V-270H150ZM150 698V1456H270V698H150Z" />
<glyph unicode="&#xa7;" glyph-name="section" horiz-adv-x="1214" d="M587 -495Q445 -495 332 -450T153 -311T90 -69L92 -64L204 -62Q204 -177 256 -250T395 -359T587 -394Q750 -394 843 -324T936 -141Q936 -70 904 -21T791 67T566 147Q405 187 300 238T142 365T90
551Q90 651 152 722T328 823Q231 872 183 943T135 1121Q135 1229 193 1309T356 1433T605 1477Q828 1477 952 1366T1072 1052L1070 1046H958Q958 1141 916 1215T795 1333T605 1376Q432 1376 344 1305T255 1123Q255 1048 285 998T396 909T627 828Q793 784 897 734T1051
613T1100 431Q1100 331 1034 261T852 161Q955 110 1005 40T1056 -139Q1056 -305 929 -400T587 -495ZM723 216Q844 226 912 284T981 428Q981 500 945 550T821 643T577 730Q539 739 506 749T442 771Q327 758 269 699T210 553Q210 475 242 425T361 336T611 250Q645
241 672 233T723 216Z" />
<glyph unicode="&#xa8;" glyph-name="dieresis" horiz-adv-x="582" d="M408 1388V1560H542V1388H408ZM40 1388V1560H175V1388H40Z" />
<glyph unicode="&#xa9;" glyph-name="copyright" horiz-adv-x="1596" d="M802 -21Q655 -21 526 36T300 196T147 434T92 729Q92 887 147 1022T299 1260T525 1419T802 1476Q949 1476 1078 1419T1304 1260T1457 1023T1512 729Q1512 571 1457 435T1305 196T1078 37T802
-21ZM802 64Q931 64 1043 115T1242 257T1377 469T1426 729Q1426 867 1378 987T1243 1198T1044 1339T802 1390Q673 1390 560 1340T360 1199T226 988T178 729Q178 590 226 470T360 258T559 115T802 64ZM792 282Q640 282 549 388T458 669V788Q458 960 549 1067T792
1175Q939 1175 1022 1096T1102 868L1099 862H1008Q1008 975 953 1030T792 1086Q682 1086 620 1003T558 789V669Q558 537 619 455T792 372Q898 372 952 426T1007 596H1098L1101 590Q1104 440 1022 361T792 282Z" />
<glyph unicode="&#xaa;" glyph-name="ordfeminine" horiz-adv-x="876" d="M355 692Q236 692 171 753T106 920Q106 1025 184 1083T414 1141H596V1202Q596 1288 555 1334T435 1381Q343 1381 293 1344T243 1234L143 1243L141 1249Q136 1347 218 1412T435 1477Q558
1477 632 1406T706 1201V887Q706 838 712 794T732 706H620Q610 731 605 758T598 814Q561 762 500 727T355 692ZM375 786Q422 786 468 804T549 851T596 912V1058H415Q319 1058 267 1019T214 924Q214 858 253 822T375 786Z" />
<glyph unicode="&#xab;" glyph-name="guillemotleft" horiz-adv-x="919" d="M378 389L83 767V786L378 1165H484L208 776L484 389H378ZM687 133L392 511V530L687 909H793L517 520L793 133H687Z" />
<glyph unicode="&#xac;" glyph-name="logicalnot" horiz-adv-x="1112" d="M813 386V671H121V776H933V386H813Z" />
<glyph unicode="&#xad;" glyph-name="uni00AD" horiz-adv-x="793" d="M154 571V671H633V571H154Z" />
<glyph unicode="&#xae;" glyph-name="registered" horiz-adv-x="1595" d="M802 -21Q654 -21 525 36T299 196T147 434T92 729Q92 887 147 1022T299 1260T525 1419T802 1476Q949 1476 1078 1419T1304 1260T1457 1023T1512 729Q1512 571 1457 435T1305 196T1078 37T802
-21ZM802 64Q931 64 1043 115T1242 257T1377 469T1426 729Q1426 867 1378 987T1243 1198T1044 1339T802 1390Q673 1390 560 1340T360 1199T226 988T177 729Q177 590 225 470T360 258T559 115T802 64ZM541 316V1166H799Q946 1166 1025 1103T1104 918Q1104 851 1068
801T963 721Q1031 697 1061 644T1092 515V459Q1092 420 1095 387T1109 332V316H1006Q997 337 995 377T993 460V514Q993 598 955 635T827 672H640V316H541ZM640 762H820Q899 763 953 803T1007 916Q1007 1002 961 1039T799 1076H640V762Z" />
<glyph unicode="&#xaf;" glyph-name="overscore" horiz-adv-x="750" d="M40 1388V1484H710V1388H40Z" />
<glyph unicode="&#xb0;" glyph-name="degree" horiz-adv-x="747" d="M369 981Q301 981 246 1014T157 1102T124 1227Q124 1295 157 1351T246 1442T369 1477Q435 1477 490 1443T578 1352T611 1227Q611 1158 578 1103T490 1014T369 981ZM369 1071Q434 1071 477 1115T521
1228Q521 1296 478 1341T369 1387Q303 1387 259 1341T214 1227Q214 1159 258 1115T369 1071Z" />
<glyph unicode="&#xb1;" glyph-name="plusminus" horiz-adv-x="1082" d="M499 289V728H85V829H499V1267H610V829H1001V728H610V289H499ZM129 50V150H964V50H129Z" />
<glyph unicode="&#xb2;" glyph-name="uni00B2" horiz-adv-x="816" d="M683 667V757H261L259 763L472 951Q541 1016 584 1063T648 1152T669 1245Q669 1358 598 1418T403 1479Q315 1479 250 1448T151 1363T120 1244L122 1238H222Q222 1304 269 1346T403 1389Q482
1389 520 1350T559 1246Q559 1199 532 1154T429 1039L113 757V667H683Z" />
<glyph unicode="&#xb3;" glyph-name="uni00B3" horiz-adv-x="837" d="M398 1119H275V1030H398Q491 1030 537 996T584 886Q584 821 534 783T393 745Q309 745 258 785T207 888H106L105 882Q101 809 140 758T245 681T393 655Q527 655 610 716T693 886Q693 1031 544
1076Q608 1101 644 1148T680 1253Q680 1361 603 1419T393 1478Q273 1478 193 1418T118 1264L120 1258H220Q220 1317 269 1352T393 1388Q481 1388 526 1351T571 1254Q571 1119 398 1119Z" />
<glyph unicode="&#xb4;" glyph-name="acute" horiz-adv-x="404" d="M40 1310L222 1560H362L364 1555L133 1307H45L40 1310Z" />
<glyph unicode="&#xb5;" glyph-name="uni00B5" horiz-adv-x="1297" d="M229 -416V981L66 994V1082H229H347V449Q347 242 418 161T610 79Q755 79 828 146T926 337V981L763 994V1082H1046V100L1209 87V0H942L932 161Q886 72 808 26T619 -21Q530 -21 461 11T347 114V-416H229Z"
/>
<glyph unicode="&#xb6;" glyph-name="paragraph" horiz-adv-x="1065" d="M513 0V87L676 100V520H570Q414 520 304 579T136 743T78 988Q78 1126 136 1231T305 1396T570 1456H959V1368L796 1355V100L959 87V0H513Z" />
<glyph unicode="&#xb7;" glyph-name="middot" horiz-adv-x="497" d="M169 633V796H306V633H169Z" />
<glyph unicode="&#xb8;" glyph-name="cedilla" horiz-adv-x="470" d="M47 -435L40 -358Q130 -358 191 -328T252 -239Q252 -182 211 -161T66 -130L98 15H191L176 -68Q256 -77 304 -116T352 -237Q352 -327 273 -381T47 -435Z" />
<glyph unicode="&#xb9;" glyph-name="uni00B9" horiz-adv-x="506" d="M349 665V1477L91 1454V1362L239 1370V665H349Z" />
<glyph unicode="&#xba;" glyph-name="ordmasculine" horiz-adv-x="921" d="M446 691Q297 691 209 783T121 1025V1142Q121 1290 208 1383T444 1477Q592 1477 680 1384T768 1142V1025Q768 876 681 784T446 691ZM446 785Q549 785 604 852T659 1025V1142Q659 1246
604 1313T444 1381Q340 1381 285 1314T229 1142V1025Q229 917 283 851T446 785Z" />
<glyph unicode="&#xbb;" glyph-name="guillemotright" horiz-adv-x="916" d="M105 162L380 550L105 944H211L505 560V541L211 162H105ZM420 162L695 550L420 944H526L820 560V541L526 162H420Z" />
<glyph unicode="&#xbc;" glyph-name="onequarter" horiz-adv-x="1491" d="M313 664V1369L165 1361V1453L422 1476V664H313ZM381 129L306 177L1017 1315L1092 1267L381 129ZM1199 0V170H769L765 237L1193 801H1307V260H1460V170H1307V0H1199ZM894 260H1199V662L1193
664L1168 621L894 260Z" />
<glyph unicode="&#xbd;" glyph-name="onehalf" horiz-adv-x="1462" d="M393 129L318 177L1029 1315L1104 1267L393 129ZM313 664V1369L165 1361V1453L422 1476V664H313ZM907 0V90L1223 372Q1299 442 1326 487T1353 579Q1353 644 1315 683T1197 722Q1110 722 1063
680T1016 571H916L914 577Q910 642 944 695T1044 780T1197 812Q1321 812 1392 752T1463 578Q1463 528 1443 486T1379 396T1266 284L1053 96L1055 90H1477V0H907Z" />
<glyph unicode="&#xbe;" glyph-name="threequarters" horiz-adv-x="1670" d="M588 129L513 177L1224 1315L1299 1267L588 129ZM1408 0V170H978L974 237L1402 801H1516V260H1669V170H1516V0H1408ZM1103 260H1408V662L1402 664L1377 621L1103 260ZM418 656Q337 656
271 682T165 759T130 883L131 889H232Q232 826 283 786T418 746Q508 746 558 784T609 887Q609 962 563 996T423 1031H300V1120H423Q596 1120 596 1255Q596 1314 551 1351T418 1389Q343 1389 294 1354T245 1259H145L143 1265Q137 1359 217 1419T418 1479Q551 1479
628 1421T705 1254Q705 1196 669 1149T569 1077Q718 1032 718 887Q718 778 635 717T418 656Z" />
<glyph unicode="&#xbf;" glyph-name="questiondown" horiz-adv-x="863" d="M521 678Q521 613 517 571T499 497T458 434T385 360Q309 289 264 232T198 115T178 -19Q178 -147 246 -218T440 -289Q558 -289 629 -221T702 -33H814L817 -39Q818 -149 770 -229T636 -351T440
-394Q260 -394 159 -293T58 -21Q58 70 86 143T171 286T313 437Q353 475 371 505T395 575T401 678H521ZM524 1083V930H386V1083H524Z" />
<glyph unicode="&#xc0;" glyph-name="Agrave" horiz-adv-x="1500" d="M62 0V87L169 94L686 1456H800L1313 94L1420 87V0H1061V87L1189 96L1068 425H415L293 96L421 87V0H62ZM454 530H1029L766 1245L746 1304H740L719 1245L454 530ZM830 1587L825 1584H737L506
1832L508 1837H649L830 1587Z" />
<glyph unicode="&#xc1;" glyph-name="Aacute" horiz-adv-x="1500" d="M62 0V87L169 94L686 1456H800L1313 94L1420 87V0H1061V87L1189 96L1068 425H415L293 96L421 87V0H62ZM454 530H1029L766 1245L746 1304H740L719 1245L454 530ZM654 1587L836 1837H976L978
1832L747 1584H659L654 1587Z" />
<glyph unicode="&#xc2;" glyph-name="Acircumflex" horiz-adv-x="1500" d="M62 0V87L169 94L686 1456H800L1313 94L1420 87V0H1061V87L1189 96L1068 425H415L293 96L421 87V0H62ZM454 530H1029L766 1245L746 1304H740L719 1245L454 530ZM465 1596V1617L696 1837H786L1019
1614V1596H913L740 1764L571 1596H465Z" />
<glyph unicode="&#xc3;" glyph-name="Atilde" horiz-adv-x="1500" d="M62 0V87L169 94L686 1456H800L1313 94L1420 87V0H1061V87L1189 96L1068 425H415L293 96L421 87V0H62ZM454 530H1029L766 1245L746 1304H740L719 1245L454 530ZM488 1618L410 1628Q410 1687
435 1733T502 1807T595 1835Q647 1835 700 1807T801 1750T890 1721Q931 1721 963 1754T996 1844L1074 1831Q1074 1772 1049 1726T983 1653T891 1626Q838 1626 785 1654T684 1710T594 1739Q552 1739 520 1707T488 1618Z" />
<glyph unicode="&#xc4;" glyph-name="Adieresis" horiz-adv-x="1500" d="M62 0V87L169 94L686 1456H800L1313 94L1420 87V0H1061V87L1189 96L1068 425H415L293 96L421 87V0H62ZM454 530H1029L766 1245L746 1304H740L719 1245L454 530ZM859 1665V1837H993V1665H859ZM491
1665V1837H626V1665H491Z" />
<glyph unicode="&#xc5;" glyph-name="Aring" horiz-adv-x="1500" d="M62 0V87L169 94L686 1456H800L1313 94L1420 87V0H1061V87L1189 96L1068 425H415L293 96L421 87V0H62ZM454 530H1029L766 1245L746 1304H740L719 1245L454 530ZM743 1495Q664 1495 610 1546T555
1676Q555 1755 609 1808T743 1861Q821 1861 875 1808T930 1676Q930 1597 876 1546T743 1495ZM743 1566Q790 1566 821 1596T853 1676Q853 1725 822 1757T743 1790Q695 1790 664 1758T632 1676Q632 1628 664 1597T743 1566Z" />
<glyph unicode="&#xc6;" glyph-name="AE" horiz-adv-x="2058" d="M51 0V87L180 96L1003 1456H1867V1150H1761L1754 1355H1174L1197 809H1786V708H1201L1226 100H1815L1823 306H1929V0H948V87L1106 100L1094 390H500L324 94L432 87V0H51ZM564 502H1090L1055 1327L1050
1328L1015 1265L564 502Z" />
<glyph unicode="&#xc7;" glyph-name="Ccedilla" horiz-adv-x="1321" d="M769 -21Q553 -21 406 73T183 335T107 718V737Q107 955 185 1121T408 1382T746 1477Q896 1477 1004 1435T1197 1320V1037H1095L1085 1269Q1041 1302 993 1325T885 1360T746 1373Q587 1373
471 1293T291 1070T227 739V718Q227 524 291 381T477 160T770 82Q862 82 947 105T1092 166L1102 386H1203V96Q1114 38 1003 9T769 -21ZM622 -435L615 -358Q705 -358 766 -328T827 -239Q827 -182 786 -161T641 -130L673 15H766L751 -68Q831 -77 879 -116T927 -237Q927
-327 848 -381T622 -435Z" />
<glyph unicode="&#xc8;" glyph-name="Egrave" horiz-adv-x="1287" d="M76 0V87L239 100V1355L76 1368V1456H1122V1137H1020L1010 1357H359V806H946V706H359V97H1041L1051 319H1152V0H76ZM731 1587L726 1584H638L407 1832L409 1837H550L731 1587Z" />
<glyph unicode="&#xc9;" glyph-name="Eacute" horiz-adv-x="1287" d="M76 0V87L239 100V1355L76 1368V1456H1122V1137H1020L1010 1357H359V806H946V706H359V97H1041L1051 319H1152V0H76ZM555 1587L737 1837H877L879 1832L648 1584H560L555 1587Z" />
<glyph unicode="&#xca;" glyph-name="Ecircumflex" horiz-adv-x="1287" d="M76 0V87L239 100V1355L76 1368V1456H1122V1137H1020L1010 1357H359V806H946V706H359V97H1041L1051 319H1152V0H76ZM366 1596V1617L597 1837H687L920 1614V1596H814L641 1764L472 1596H366Z" />
<glyph unicode="&#xcb;" glyph-name="Edieresis" horiz-adv-x="1287" d="M76 0V87L239 100V1355L76 1368V1456H1122V1137H1020L1010 1357H359V806H946V706H359V97H1041L1051 319H1152V0H76ZM760 1665V1837H894V1665H760ZM392 1665V1837H527V1665H392Z" />
<glyph unicode="&#xcc;" glyph-name="Igrave" horiz-adv-x="597" d="M76 0V87L239 100V1355L76 1368V1456H522V1368L359 1355V100L522 87V0H76ZM386 1587L381 1584H293L62 1832L64 1837H205L386 1587Z" />
<glyph unicode="&#xcd;" glyph-name="Iacute" horiz-adv-x="597" d="M76 0V87L239 100V1355L76 1368V1456H522V1368L359 1355V100L522 87V0H76ZM210 1587L392 1837H532L534 1832L303 1584H215L210 1587Z" />
<glyph unicode="&#xce;" glyph-name="Icircumflex" horiz-adv-x="597" d="M76 0V87L239 100V1355L76 1368V1456H522V1368L359 1355V100L522 87V0H76ZM21 1596V1617L252 1837H342L575 1614V1596H469L296 1764L127 1596H21Z" />
<glyph unicode="&#xcf;" glyph-name="Idieresis" horiz-adv-x="597" d="M76 0V87L239 100V1355L76 1368V1456H522V1368L359 1355V100L522 87V0H76ZM415 1665V1837H549V1665H415ZM47 1665V1837H182V1665H47Z" />
<glyph unicode="&#xd0;" glyph-name="Eth" horiz-adv-x="1372" d="M76 0V87L239 100V1355L76 1368V1456H239H639Q825 1456 966 1364T1187 1110T1268 740V716Q1268 509 1189 348T970 93T644 0H76ZM359 100H639Q791 100 905 181T1083 402T1148 716V742Q1148 918
1084 1056T905 1275T639 1355H359V100ZM76 943V1044H635V943H76Z" />
<glyph unicode="&#xd1;" glyph-name="Ntilde" horiz-adv-x="1552" d="M77 0V87L240 100V1355L77 1368V1456H240H361L1193 204L1199 206V1355L1029 1368V1456H1312H1475V1368L1312 1355V0H1200L359 1257L353 1255V100L523 87V0H77ZM522 1618L444 1628Q444 1687
469 1733T536 1807T629 1835Q681 1835 734 1807T835 1750T924 1721Q965 1721 997 1754T1030 1844L1108 1831Q1108 1772 1083 1726T1017 1653T925 1626Q872 1626 819 1654T718 1710T628 1739Q586 1739 554 1707T522 1618Z" />
<glyph unicode="&#xd2;" glyph-name="Ograve" horiz-adv-x="1425" d="M710 -21Q572 -21 460 32T268 183T145 416T102 718V737Q102 903 144 1038T267 1272T459 1424T709 1477Q850 1477 962 1424T1154 1273T1275 1039T1317 737V718Q1317 552 1276 417T1155 183T964
32T710 -21ZM710 84Q868 84 976 163T1141 385T1197 718V739Q1197 929 1141 1071T975 1292T709 1372Q558 1372 449 1293T282 1071T223 739V718Q223 528 281 385T449 163T710 84ZM797 1587L792 1584H704L473 1832L475 1837H616L797 1587Z" />
<glyph unicode="&#xd3;" glyph-name="Oacute" horiz-adv-x="1425" d="M710 -21Q572 -21 460 32T268 183T145 416T102 718V737Q102 903 144 1038T267 1272T459 1424T709 1477Q850 1477 962 1424T1154 1273T1275 1039T1317 737V718Q1317 552 1276 417T1155 183T964
32T710 -21ZM710 84Q868 84 976 163T1141 385T1197 718V739Q1197 929 1141 1071T975 1292T709 1372Q558 1372 449 1293T282 1071T223 739V718Q223 528 281 385T449 163T710 84ZM621 1587L803 1837H943L945 1832L714 1584H626L621 1587Z" />
<glyph unicode="&#xd4;" glyph-name="Ocircumflex" horiz-adv-x="1425" d="M710 -21Q572 -21 460 32T268 183T145 416T102 718V737Q102 903 144 1038T267 1272T459 1424T709 1477Q850 1477 962 1424T1154 1273T1275 1039T1317 737V718Q1317 552 1276 417T1155
183T964 32T710 -21ZM710 84Q868 84 976 163T1141 385T1197 718V739Q1197 929 1141 1071T975 1292T709 1372Q558 1372 449 1293T282 1071T223 739V718Q223 528 281 385T449 163T710 84ZM432 1596V1617L663 1837H753L986 1614V1596H880L707 1764L538 1596H432Z"
/>
<glyph unicode="&#xd5;" glyph-name="Otilde" horiz-adv-x="1425" d="M710 -21Q572 -21 460 32T268 183T145 416T102 718V737Q102 903 144 1038T267 1272T459 1424T709 1477Q850 1477 962 1424T1154 1273T1275 1039T1317 737V718Q1317 552 1276 417T1155 183T964
32T710 -21ZM710 84Q868 84 976 163T1141 385T1197 718V739Q1197 929 1141 1071T975 1292T709 1372Q558 1372 449 1293T282 1071T223 739V718Q223 528 281 385T449 163T710 84ZM455 1618L377 1628Q377 1687 402 1733T469 1807T562 1835Q614 1835 667 1807T768 1750T857
1721Q898 1721 930 1754T963 1844L1041 1831Q1041 1772 1016 1726T950 1653T858 1626Q805 1626 752 1654T651 1710T561 1739Q519 1739 487 1707T455 1618Z" />
<glyph unicode="&#xd6;" glyph-name="Odieresis" horiz-adv-x="1425" d="M710 -21Q572 -21 460 32T268 183T145 416T102 718V737Q102 903 144 1038T267 1272T459 1424T709 1477Q850 1477 962 1424T1154 1273T1275 1039T1317 737V718Q1317 552 1276 417T1155 183T964
32T710 -21ZM710 84Q868 84 976 163T1141 385T1197 718V739Q1197 929 1141 1071T975 1292T709 1372Q558 1372 449 1293T282 1071T223 739V718Q223 528 281 385T449 163T710 84ZM826 1665V1837H960V1665H826ZM458 1665V1837H593V1665H458Z" />
<glyph unicode="&#xd7;" glyph-name="multiply" horiz-adv-x="1056" d="M158 240L79 318L437 683L94 1034L173 1113L515 763L858 1113L937 1034L594 683L952 318L873 240L515 603L158 240Z" />
<glyph unicode="&#xd8;" glyph-name="Oslash" horiz-adv-x="1425" d="M710 -21Q572 -21 460 32T268 183T145 416T102 718V737Q102 903 144 1038T267 1272T459 1424T709 1477Q850 1477 962 1424T1154 1273T1275 1039T1317 737V718Q1317 552 1276 417T1155 183T964
32T710 -21ZM710 84Q868 84 976 163T1141 385T1197 718V739Q1197 929 1141 1071T975 1292T709 1372Q558 1372 449 1293T282 1071T223 739V718Q223 528 281 385T449 163T710 84ZM171 -74L1149 1515H1253L275 -74H171Z" />
<glyph unicode="&#xd9;" glyph-name="Ugrave" horiz-adv-x="1478" d="M737 -21Q587 -21 473 36T293 203T228 469V1355L65 1368V1456H511V1368L348 1355V469Q348 345 397 259T535 127T738 81Q853 81 942 126T1081 257T1131 469V1355L968 1368V1456H1414V1368L1251
1355V469Q1251 310 1187 201T1006 36T737 -21ZM827 1587L822 1584H734L503 1832L505 1837H646L827 1587Z" />
<glyph unicode="&#xda;" glyph-name="Uacute" horiz-adv-x="1478" d="M737 -21Q587 -21 473 36T293 203T228 469V1355L65 1368V1456H511V1368L348 1355V469Q348 345 397 259T535 127T738 81Q853 81 942 126T1081 257T1131 469V1355L968 1368V1456H1414V1368L1251
1355V469Q1251 310 1187 201T1006 36T737 -21ZM651 1587L833 1837H973L975 1832L744 1584H656L651 1587Z" />
<glyph unicode="&#xdb;" glyph-name="Ucircumflex" horiz-adv-x="1478" d="M737 -21Q587 -21 473 36T293 203T228 469V1355L65 1368V1456H511V1368L348 1355V469Q348 345 397 259T535 127T738 81Q853 81 942 126T1081 257T1131 469V1355L968 1368V1456H1414V1368L1251
1355V469Q1251 310 1187 201T1006 36T737 -21ZM462 1596V1617L693 1837H783L1016 1614V1596H910L737 1764L568 1596H462Z" />
<glyph unicode="&#xdc;" glyph-name="Udieresis" horiz-adv-x="1478" d="M737 -21Q587 -21 473 36T293 203T228 469V1355L65 1368V1456H511V1368L348 1355V469Q348 345 397 259T535 127T738 81Q853 81 942 126T1081 257T1131 469V1355L968 1368V1456H1414V1368L1251
1355V469Q1251 310 1187 201T1006 36T737 -21ZM856 1665V1837H990V1665H856ZM488 1665V1837H623V1665H488Z" />
<glyph unicode="&#xdd;" glyph-name="Yacute" horiz-adv-x="1444" d="M500 0V87L663 100V542L179 1360L60 1368V1456H467V1368L314 1360L699 689L722 644L723 646L747 689L1139 1360L984 1368V1456H1386V1368L1263 1360L783 549V100L946 87V0H500ZM634 1587L816
1837H956L958 1832L727 1584H639L634 1587Z" />
<glyph unicode="&#xde;" glyph-name="Thorn" horiz-adv-x="1257" d="M70 0V87L233 100V1355L70 1368V1456H353H516V1368L353 1355V1152H677Q898 1152 1022 1037T1146 738Q1146 553 1022 439T677 324H353V100L516 87V0H70ZM353 424H677Q792 424 869 466T986 580T1026
736Q1026 823 987 895T870 1009T677 1052H353V424Z" />
<glyph unicode="&#xdf;" glyph-name="germandbls" horiz-adv-x="1264" d="M802 -21Q745 -21 684 -10T573 19T496 60L530 159Q572 128 645 104T788 79Q907 79 974 139T1042 295Q1042 361 1005 415T913 519T804 618T712 726T675 855Q675 905 694 957T739 1063T784
1173T803 1283Q803 1369 746 1425T593 1481Q478 1481 408 1397T338 1158V0H55V87L218 100V1158Q218 1293 264 1387T392 1531T588 1581Q684 1581 758 1546T875 1444T918 1283Q918 1214 899 1155T856 1043T812 945T793 856Q793 801 830 753T923 659T1033 560T1125
443T1162 295Q1162 194 1114 124T985 16T802 -21Z" />
<glyph unicode="&#xe0;" glyph-name="agrave" horiz-adv-x="1123" d="M420 -21Q266 -21 179 61T92 283Q92 383 150 458T314 576T567 618H791V742Q791 859 722 930T512 1002Q433 1002 371 977T262 912L252 747H153V973Q223 1033 312 1067T514 1102Q705 1102 808
1006T911 740V218Q911 186 913 155T920 92L1049 87V0H813Q801 59 797 95T791 176Q732 89 635 34T420 -21ZM434 84Q545 84 644 142T791 298V526H566Q400 526 306 455T212 279Q212 192 272 138T434 84ZM611 1310L606 1307H518L287 1555L289 1560H430L611 1310Z" />
<glyph unicode="&#xe1;" glyph-name="aacute" horiz-adv-x="1123" d="M420 -21Q266 -21 179 61T92 283Q92 383 150 458T314 576T567 618H791V742Q791 859 722 930T512 1002Q433 1002 371 977T262 912L252 747H153V973Q223 1033 312 1067T514 1102Q705 1102 808
1006T911 740V218Q911 186 913 155T920 92L1049 87V0H813Q801 59 797 95T791 176Q732 89 635 34T420 -21ZM434 84Q545 84 644 142T791 298V526H566Q400 526 306 455T212 279Q212 192 272 138T434 84ZM436 1310L618 1560H758L760 1555L529 1307H441L436 1310Z" />
<glyph unicode="&#xe2;" glyph-name="acircumflex" horiz-adv-x="1123" d="M420 -21Q266 -21 179 61T92 283Q92 383 150 458T314 576T567 618H791V742Q791 859 722 930T512 1002Q433 1002 371 977T262 912L252 747H153V973Q223 1033 312 1067T514 1102Q705 1102
808 1006T911 740V218Q911 186 913 155T920 92L1049 87V0H813Q801 59 797 95T791 176Q732 89 635 34T420 -21ZM434 84Q545 84 644 142T791 298V526H566Q400 526 306 455T212 279Q212 192 272 138T434 84ZM246 1319V1340L477 1560H567L800 1337V1319H694L521 1487L352
1319H246Z" />
<glyph unicode="&#xe3;" glyph-name="atilde" horiz-adv-x="1123" d="M420 -21Q266 -21 179 61T92 283Q92 383 150 458T314 576T567 618H791V742Q791 859 722 930T512 1002Q433 1002 371 977T262 912L252 747H153V973Q223 1033 312 1067T514 1102Q705 1102 808
1006T911 740V218Q911 186 913 155T920 92L1049 87V0H813Q801 59 797 95T791 176Q732 89 635 34T420 -21ZM434 84Q545 84 644 142T791 298V526H566Q400 526 306 455T212 279Q212 192 272 138T434 84ZM269 1341L191 1351Q191 1410 216 1456T283 1530T376 1558Q428
1558 481 1530T582 1473T671 1444Q712 1444 744 1477T777 1567L855 1554Q855 1495 830 1449T764 1376T672 1349Q619 1349 566 1377T465 1433T375 1462Q333 1462 301 1430T269 1341Z" />
<glyph unicode="&#xe4;" glyph-name="adieresis" horiz-adv-x="1123" d="M420 -21Q266 -21 179 61T92 283Q92 383 150 458T314 576T567 618H791V742Q791 859 722 930T512 1002Q433 1002 371 977T262 912L252 747H153V973Q223 1033 312 1067T514 1102Q705 1102
808 1006T911 740V218Q911 186 913 155T920 92L1049 87V0H813Q801 59 797 95T791 176Q732 89 635 34T420 -21ZM434 84Q545 84 644 142T791 298V526H566Q400 526 306 455T212 279Q212 192 272 138T434 84ZM640 1388V1560H774V1388H640ZM272 1388V1560H407V1388H272Z"
/>
<glyph unicode="&#xe5;" glyph-name="aring" horiz-adv-x="1123" d="M420 -21Q266 -21 179 61T92 283Q92 383 150 458T314 576T567 618H791V742Q791 859 722 930T512 1002Q433 1002 371 977T262 912L252 747H153V973Q223 1033 312 1067T514 1102Q705 1102 808
1006T911 740V218Q911 186 913 155T920 92L1049 87V0H813Q801 59 797 95T791 176Q732 89 635 34T420 -21ZM434 84Q545 84 644 142T791 298V526H566Q400 526 306 455T212 279Q212 192 272 138T434 84ZM524 1218Q445 1218 391 1269T336 1399Q336 1478 390 1531T524
1584Q602 1584 656 1531T711 1399Q711 1320 657 1269T524 1218ZM524 1289Q571 1289 602 1319T634 1399Q634 1448 603 1480T524 1513Q476 1513 445 1481T413 1399Q413 1351 445 1320T524 1289Z" />
<glyph unicode="&#xe6;" glyph-name="ae" horiz-adv-x="1768" d="M425 -21Q268 -21 180 64T92 294Q92 396 150 473T314 593T568 636H791V742Q791 859 722 930T512 1002Q434 1002 372 977T262 912L253 747H153V973Q223 1033 312 1067T514 1102Q659 1102 750 1044T873
879Q908 946 964 996T1091 1074T1240 1102Q1374 1102 1468 1046T1613 887T1663 639V539H912L911 495Q911 310 1001 195T1270 79Q1373 79 1449 110T1593 199L1641 112Q1581 56 1493 18T1270 -21Q989 -21 852 221Q782 108 673 44T425 -21ZM434 84Q511 84 583 114T713
198T804 324Q798 372 795 414T791 503V544H566Q401 544 307 471T212 290Q212 203 272 144T434 84ZM914 636H1543V667Q1543 814 1466 907T1240 1001Q1147 1001 1076 955T963 827T912 641L914 636Z" />
<glyph unicode="&#xe7;" glyph-name="ccedilla" horiz-adv-x="1075" d="M551 -21Q416 -21 313 47T151 237T92 520V562Q92 720 148 842T308 1033T550 1102Q676 1102 774 1055T938 932L940 687H840L824 889Q774 942 707 971T553 1001Q451 1001 374 944T255 788T212
562V520Q212 388 254 289T372 134T552 79Q673 79 754 142T852 330H959L961 324Q952 222 901 144T761 23T551 -21ZM441 -435L434 -358Q524 -358 585 -328T646 -239Q646 -182 605 -161T460 -130L492 15H585L570 -68Q650 -77 698 -116T746 -237Q746 -327 667 -381T441
-435Z" />
<glyph unicode="&#xe8;" glyph-name="egrave" horiz-adv-x="1072" d="M565 -21Q426 -21 320 46T154 233T94 509V564Q94 719 154 840T316 1032T545 1102Q678 1102 772 1045T917 885T968 641V539H218L216 495Q217 375 260 281T382 133T565 79Q667 79 744 111T881
200L932 118Q869 58 780 19T565 -21ZM226 639H848V669Q848 764 812 839T708 958T545 1001Q459 1001 390 955T278 828T224 645L226 639ZM633 1310L628 1307H540L309 1555L311 1560H452L633 1310Z" />
<glyph unicode="&#xe9;" glyph-name="eacute" horiz-adv-x="1072" d="M565 -21Q426 -21 320 46T154 233T94 509V564Q94 719 154 840T316 1032T545 1102Q678 1102 772 1045T917 885T968 641V539H218L216 495Q217 375 260 281T382 133T565 79Q667 79 744 111T881
200L932 118Q869 58 780 19T565 -21ZM226 639H848V669Q848 764 812 839T708 958T545 1001Q459 1001 390 955T278 828T224 645L226 639ZM457 1310L639 1560H779L781 1555L550 1307H462L457 1310Z" />
<glyph unicode="&#xea;" glyph-name="ecircumflex" horiz-adv-x="1072" d="M565 -21Q426 -21 320 46T154 233T94 509V564Q94 719 154 840T316 1032T545 1102Q678 1102 772 1045T917 885T968 641V539H218L216 495Q217 375 260 281T382 133T565 79Q667 79 744 111T881
200L932 118Q869 58 780 19T565 -21ZM226 639H848V669Q848 764 812 839T708 958T545 1001Q459 1001 390 955T278 828T224 645L226 639ZM268 1319V1340L499 1560H589L822 1337V1319H716L543 1487L374 1319H268Z" />
<glyph unicode="&#xeb;" glyph-name="edieresis" horiz-adv-x="1072" d="M565 -21Q426 -21 320 46T154 233T94 509V564Q94 719 154 840T316 1032T545 1102Q678 1102 772 1045T917 885T968 641V539H218L216 495Q217 375 260 281T382 133T565 79Q667 79 744 111T881
200L932 118Q869 58 780 19T565 -21ZM226 639H848V669Q848 764 812 839T708 958T545 1001Q459 1001 390 955T278 828T224 645L226 639ZM662 1388V1560H796V1388H662ZM294 1388V1560H429V1388H294Z" />
<glyph unicode="&#xec;" glyph-name="igrave" horiz-adv-x="629" d="M79 0V87L242 100V981L79 994V1082H362V100L525 87V0H79ZM383 1310L378 1307H290L59 1555L61 1560H202L383 1310Z" />
<glyph unicode="&#xed;" glyph-name="iacute" horiz-adv-x="629" d="M79 0V87L242 100V981L79 994V1082H362V100L525 87V0H79ZM207 1310L389 1560H529L531 1555L300 1307H212L207 1310Z" />
<glyph unicode="&#xee;" glyph-name="icircumflex" horiz-adv-x="629" d="M79 0V87L242 100V981L79 994V1082H362V100L525 87V0H79ZM274 1319V1340L505 1560H595L828 1337V1319H722L549 1487L380 1319H274Z" />
<glyph unicode="&#xef;" glyph-name="idieresis" horiz-adv-x="629" d="M79 0V87L242 100V981L79 994V1082H362V100L525 87V0H79ZM412 1388V1560H546V1388H412ZM44 1388V1560H179V1388H44Z" />
<glyph unicode="&#xf0;" glyph-name="eth" horiz-adv-x="1180" d="M553 -21Q414 -21 307 42T139 212T78 455Q78 612 137 726T303 902T556 965Q661 965 750 925T891 817L896 822Q878 955 828 1058T702 1240L394 1064L344 1137L631 1301Q587 1334 538 1361T433 1414L471
1517Q548 1487 614 1449T739 1363L997 1511L1048 1438L806 1299Q918 1178 976 1011T1034 623V535Q1034 372 971 247T800 50T553 -21ZM557 81Q662 81 742 139T868 300T914 535V625V680Q876 756 786 809T556 862Q441 862 361 810T240 665T199 455Q199 356 242 271T366
133T557 81Z" />
<glyph unicode="&#xf1;" glyph-name="ntilde" horiz-adv-x="1331" d="M82 0V87L245 100V981L82 994V1082H351L361 888Q413 990 501 1046T711 1102Q887 1102 979 995T1071 658V100L1234 87V0H788V87L951 100V657Q951 845 882 922T685 999Q551 999 473 924T365 728V100L528
87V0H82ZM412 1341L334 1351Q334 1410 359 1456T426 1530T519 1558Q571 1558 624 1530T725 1473T814 1444Q855 1444 887 1477T920 1567L998 1554Q998 1495 973 1449T907 1376T815 1349Q762 1349 709 1377T608 1433T518 1462Q476 1462 444 1430T412 1341Z" />
<glyph unicode="&#xf2;" glyph-name="ograve" horiz-adv-x="1141" d="M572 -21Q426 -21 319 48T152 241T92 524V557Q92 716 151 839T318 1032T570 1102Q715 1102 822 1032T989 840T1049 557V524Q1049 364 990 241T823 49T572 -21ZM572 79Q683 79 763 138T886 298T929
524V557Q929 681 886 782T763 942T570 1001Q458 1001 378 942T255 782T212 557V524Q212 398 254 298T377 138T572 79ZM658 1310L653 1307H565L334 1555L336 1560H477L658 1310Z" />
<glyph unicode="&#xf3;" glyph-name="oacute" horiz-adv-x="1141" d="M572 -21Q426 -21 319 48T152 241T92 524V557Q92 716 151 839T318 1032T570 1102Q715 1102 822 1032T989 840T1049 557V524Q1049 364 990 241T823 49T572 -21ZM572 79Q683 79 763 138T886 298T929
524V557Q929 681 886 782T763 942T570 1001Q458 1001 378 942T255 782T212 557V524Q212 398 254 298T377 138T572 79ZM482 1310L664 1560H804L806 1555L575 1307H487L482 1310Z" />
<glyph unicode="&#xf4;" glyph-name="ocircumflex" horiz-adv-x="1141" d="M572 -21Q426 -21 319 48T152 241T92 524V557Q92 716 151 839T318 1032T570 1102Q715 1102 822 1032T989 840T1049 557V524Q1049 364 990 241T823 49T572 -21ZM572 79Q683 79 763 138T886
298T929 524V557Q929 681 886 782T763 942T570 1001Q458 1001 378 942T255 782T212 557V524Q212 398 254 298T377 138T572 79ZM293 1319V1340L524 1560H614L847 1337V1319H741L568 1487L399 1319H293Z" />
<glyph unicode="&#xf5;" glyph-name="otilde" horiz-adv-x="1141" d="M572 -21Q426 -21 319 48T152 241T92 524V557Q92 716 151 839T318 1032T570 1102Q715 1102 822 1032T989 840T1049 557V524Q1049 364 990 241T823 49T572 -21ZM572 79Q683 79 763 138T886 298T929
524V557Q929 681 886 782T763 942T570 1001Q458 1001 378 942T255 782T212 557V524Q212 398 254 298T377 138T572 79ZM316 1341L238 1351Q238 1410 263 1456T330 1530T423 1558Q475 1558 528 1530T629 1473T718 1444Q759 1444 791 1477T824 1567L902 1554Q902 1495
877 1449T811 1376T719 1349Q666 1349 613 1377T512 1433T422 1462Q380 1462 348 1430T316 1341Z" />
<glyph unicode="&#xf6;" glyph-name="odieresis" horiz-adv-x="1141" d="M572 -21Q426 -21 319 48T152 241T92 524V557Q92 716 151 839T318 1032T570 1102Q715 1102 822 1032T989 840T1049 557V524Q1049 364 990 241T823 49T572 -21ZM572 79Q683 79 763 138T886
298T929 524V557Q929 681 886 782T763 942T570 1001Q458 1001 378 942T255 782T212 557V524Q212 398 254 298T377 138T572 79ZM687 1388V1560H821V1388H687ZM319 1388V1560H454V1388H319Z" />
<glyph unicode="&#xf7;" glyph-name="divide" horiz-adv-x="1148" d="M74 645V760H1072V645H74ZM508 213V372H651V213H508ZM508 1010V1170H651V1010H508Z" />
<glyph unicode="&#xf8;" glyph-name="oslash" horiz-adv-x="1141" d="M572 -21Q426 -21 319 48T152 241T92 524V557Q92 716 151 839T318 1032T570 1102Q715 1102 822 1032T989 840T1049 557V524Q1049 364 990 241T823 49T572 -21ZM572 79Q683 79 763 138T886 298T929
524V557Q929 681 886 782T763 942T570 1001Q458 1001 378 942T255 782T212 557V524Q212 398 254 298T377 138T572 79ZM176 -136L872 1218H965L269 -136H176Z" />
<glyph unicode="&#xf9;" glyph-name="ugrave" horiz-adv-x="1222" d="M541 -21Q371 -21 277 95T182 455V981L48 994V1082H182H302V453Q302 255 367 169T555 82Q694 82 772 146T879 320V981L725 994V1082H879H1000V100L1145 87V0H894L884 178Q833 83 748 31T541
-21ZM691 1310L686 1307H598L367 1555L369 1560H510L691 1310Z" />
<glyph unicode="&#xfa;" glyph-name="uacute" horiz-adv-x="1222" d="M541 -21Q371 -21 277 95T182 455V981L48 994V1082H182H302V453Q302 255 367 169T555 82Q694 82 772 146T879 320V981L725 994V1082H879H1000V100L1145 87V0H894L884 178Q833 83 748 31T541
-21ZM515 1310L697 1560H837L839 1555L608 1307H520L515 1310Z" />
<glyph unicode="&#xfb;" glyph-name="ucircumflex" horiz-adv-x="1222" d="M541 -21Q371 -21 277 95T182 455V981L48 994V1082H182H302V453Q302 255 367 169T555 82Q694 82 772 146T879 320V981L725 994V1082H879H1000V100L1145 87V0H894L884 178Q833 83 748 31T541
-21ZM326 1319V1340L557 1560H647L880 1337V1319H774L601 1487L432 1319H326Z" />
<glyph unicode="&#xfc;" glyph-name="udieresis" horiz-adv-x="1222" d="M541 -21Q371 -21 277 95T182 455V981L48 994V1082H182H302V453Q302 255 367 169T555 82Q694 82 772 146T879 320V981L725 994V1082H879H1000V100L1145 87V0H894L884 178Q833 83 748 31T541
-21ZM720 1388V1560H854V1388H720ZM352 1388V1560H487V1388H352Z" />
<glyph unicode="&#xfd;" glyph-name="yacute" horiz-adv-x="1188" d="M295 -437Q274 -437 245 -433T200 -424L214 -325Q228 -327 253 -329T291 -332Q369 -332 415 -281T499 -134L555 13L158 987L41 994V1082H422V994L285 985L563 287L608 164H614L923 985L782
994V1082H1160V994L1045 987L601 -174Q571 -250 533 -310T438 -403T295 -437ZM506 1310L688 1560H828L830 1555L599 1307H511L506 1310Z" />
<glyph unicode="&#xfe;" glyph-name="thorn" horiz-adv-x="1173" d="M47 -416V-328L210 -315V1459L47 1472V1560H330V923Q383 1007 468 1054T667 1102Q796 1102 889 1032T1032 833T1081 532V511Q1081 349 1032 230T891 45T669 -21Q554 -21 469 22T330 143V-315L493
-328V-416H47ZM641 79Q798 79 879 197T961 511V532Q961 670 925 775T817 939T639 999Q516 999 442 939T330 786V272Q368 183 446 131T641 79Z" />
<glyph unicode="&#xff;" glyph-name="ydieresis" horiz-adv-x="1188" d="M295 -437Q274 -437 245 -433T200 -424L214 -325Q228 -327 253 -329T291 -332Q369 -332 415 -281T499 -134L555 13L158 987L41 994V1082H422V994L285 985L563 287L608 164H614L923 985L782
994V1082H1160V994L1045 987L601 -174Q571 -250 533 -310T438 -403T295 -437ZM711 1388V1560H845V1388H711ZM343 1388V1560H478V1388H343Z" />
<glyph unicode="&#x2013;" glyph-name="endash" horiz-adv-x="1406" d="M161 687V788H1247V687H161Z" />
<glyph unicode="&#x2014;" glyph-name="emdash" horiz-adv-x="1645" d="M165 687V788H1501V687H165Z" />
<glyph unicode="&#x2018;" glyph-name="quoteleft" horiz-adv-x="365" d="M99 1078V1250Q99 1312 115 1372T163 1484T239 1578L310 1528Q263 1461 241 1396T219 1252V1078H99Z" />
<glyph unicode="&#x2019;" glyph-name="quoteright" horiz-adv-x="365" d="M134 1057L62 1108Q109 1173 131 1238T154 1383V1560H274V1385Q274 1322 257 1262T209 1150T134 1057Z" />
<glyph unicode="&#x201a;" glyph-name="quotesinglbase" horiz-adv-x="393" d="M131 -281L60 -229Q107 -163 129 -98T152 45V188H272V48Q272 -45 235 -132T131 -281Z" />
<glyph unicode="&#x201c;" glyph-name="quotedblleft" horiz-adv-x="613" d="M99 1078V1250Q99 1312 115 1372T163 1484T239 1578L310 1528Q263 1461 241 1396T219 1252V1078H99ZM346 1078V1250Q346 1312 362 1372T410 1484T486 1578L557 1528Q510 1461 488 1396T466
1252V1078H346Z" />
<glyph unicode="&#x201d;" glyph-name="quotedblright" horiz-adv-x="617" d="M140 1057L68 1108Q115 1173 137 1238T160 1383V1560H280V1385Q280 1322 263 1262T215 1150T140 1057ZM385 1057L313 1108Q360 1173 382 1238T405 1383V1560H525V1385Q525 1322 508
1262T460 1150T385 1057Z" />
<glyph unicode="&#x201e;" glyph-name="quotedblbase" horiz-adv-x="626" d="M131 -281L60 -229Q107 -163 129 -98T152 45V188H272V48Q272 -45 235 -132T131 -281ZM364 -281L293 -229Q340 -163 362 -98T385 45V188H505V48Q505 -45 468 -132T364 -281Z" />
<glyph unicode="&#x2022;" glyph-name="bullet" horiz-adv-x="672" d="M320 540Q235 540 185 589T135 717V782Q135 861 185 911T319 961Q404 961 455 911T506 782V717Q506 638 456 589T320 540Z" />
<glyph unicode="&#x2039;" glyph-name="guilsinglleft" horiz-adv-x="575" d="M363 168L68 546V565L363 944H469L193 555L469 168H363Z" />
<glyph unicode="&#x203a;" glyph-name="guilsinglright" horiz-adv-x="574" d="M83 162L358 550L83 944H189L483 560V541L189 162H83Z" />
</font>
</defs>
</svg>
